img image001 image001 image001 image001 image001 image001 image001 image001 image001 image001 image001 image001 image001 image001 image001 image001

Planets Sun Sun Sun
Статистика раздачи
Автор: Снежана | Размер: 1.41 ГБ | Добавлен: 16 окт 2018
Раздают: 11    Качают: 0
Скачать торрент
Скачать торрент
Описание торрента

СообщениеДобавлено: 16 окт 2018 

Углерод / Carbone

Перевод: Профессиональный (многоголосый, закадровый) HDRezka Studio
Субтитры: Отсутствуют
Формат: HDRip-AVC, MKV, H.264, AC3
Страна: Франция, Бельгия
Режиссер: Оливье Маршаль
Жанр: триллер, криминал
Продолжительность: 01:43:46
Год выпуска: 2017

В ролях: Бенуа Мажимель, Идир Чендер, Лаура Смет, Микаэль Юн, Дани, Патрик Каталифо, Жерар Депардьё, Мусса Мааскри, Фридерик Эпо

Описание: Пытаясь спасти свою компанию от разорения, французский бизнесмен Антуан Рока решается на аферу, которая будет названа «мошенничеством века». Ступив на преступную дорожку, Антуан сталкивается с бандитизмом, насилием и предательством.



Видео: 914x382 (2.40:1), 24 fps, AVC MPEG-4 (H.264), ~1715 kbps, 0.205 bit/pixel
Аудио: 48 kHz, AC3 Dolby Digital, 2 ch, ~192 kbps

Format : Matroska
Format version : Version 2
File size : 1.41 GiB
Duration : 1 h 43 min
Overall bit rate : 1 946 kb/s
Movie name : Углерод (2017) HDRip-AVC_ivanes20031987
Encoded date : UTC 2018-10-15 13:35:49
Writing application : mkvmerge v4.4.0 ('Die Wiederkehr') сборка от Jan 3 2011 21:40:45
Writing library : libebml v1.0.0 + libmatroska v1.0.0
Cover : Yes
Attachments : cover.jpg
Video
ID : 1
Format : AVC
Format/Info : Advanced Video Codec
Format profile :
Format settings, CABAC : Yes
Format settings, RefFrames : 11 frames
Codec ID : V_MPEG4/ISO/AVC
Duration : 1 h 43 min
Bit rate : 1 715 kb/s
Width : 914 pixels
Height : 382 pixels
Display aspect ratio : 2.40:1
Frame rate mode : Constant
Frame rate : 24.000 FPS
Color space : YUV
Chroma subsampling : 4:2:0
Bit depth : 8 bits
Scan type : Progressive
Bits/(Pixel*Frame) : 0.205
Stream size : 1.24 GiB (88%)
Title : Rip by ivanes20031987
Writing library : x264 core 157 r2935 545de2f
Encoding settings : cabac=1 / ref=11 / deblock=1:-3:-3 / analyse=0x3:0x113 / me=umh / subme=10 / psy=1 / psy_rd=1.00:0.00 / mixed_ref=1 / me_range=32 / chroma_me=1 / trellis=2 / 8x8dct=1 / cqm=0 / deadzone=21,11 / fast_pskip=0 / chroma_qp_offset=-2 / threads=12 / lookahead_threads=2 / sliced_threads=0 / nr=0 / decimate=1 / interlaced=0 / bluray_compat=0 / constrained_intra=0 / bframes=12 / b_pyramid=2 / b_adapt=2 / b_bias=0 / direct=1 / weightb=1 / open_gop=0 / weightp=2 / keyint=240 / keyint_min=24 / scenecut=40 / intra_refresh=0 / rc_lookahead=60 / rc=crf / mbtree=0 / crf=15.9 / qcomp=0.60 / qpmin=0 / qpmax=69 / qpstep=4 / vbv_maxrate=50000 / vbv_bufsize=62500 / crf_max=0.0 / nal_hrd=none / filler=0 / ip_ratio=1.40 / pb_ratio=1.30 / aq=1:1.00
Default : Yes
Forced : No
Audio
ID : 2
Format : AC-3
Format/Info : Audio Coding 3
Format settings, Endianness : Big
Codec ID : A_AC3
Duration : 1 h 43 min
Bit rate mode : Constant
Bit rate : 192 kb/s
Channel(s) : 2 channels
Channel positions : Front: L R
Sampling rate : 48.0 kHz
Frame rate : 31.250 FPS (1536 SPF)
Bit depth : 16 bits
Compression mode : Lossy
Stream size : 143 MiB (10%)
Title : HDRezka Studio
Language : Russian
Service kind : Complete Main
Default : Yes
Forced : No












   Похожие торренты   Торрент   Размер 
В этой теме нет новых непрочитанных сообщений. Углерод / Carbone (Оливье Маршаль) [2017, триллер, криминал, BDRip] MVO

132 | 2

1.46 ГБ

В этой теме нет новых непрочитанных сообщений. Углерод / Carbone (Оливье Маршаль) [2017, триллер, криминал, LowHDRip] MVO

11 | 2

739.8 МБ

В этой теме нет новых непрочитанных сообщений. Углерод / Carbone (Оливье Маршаль) [2017, триллер, HDRip] MVO

21 | 0

1.37 ГБ

В этой теме нет новых непрочитанных сообщений. Однажды в Марселе / MR 73 (Оливье Маршаль) [2008, триллер, драма, криминал, BDRip-AVC] MVO

3 | 0

2.16 ГБ

В этой теме нет новых непрочитанных сообщений. Коломбиана [Расширенная версия] / Colombiana [Unrated] (Оливье Мегатон) [2011, боевик, триллер, драма, криминал, BDRip] AVO

6 | 0

1.46 ГБ

В этой теме нет новых непрочитанных сообщений. Тюрьма / Deo peurijeun / The Prison (На Хён ) [2017, криминал, драма, триллер, HDRip] DVO

0 | 0

2.05 ГБ

В этой теме нет новых непрочитанных сообщений. Охота на человека / Manhunt (Джон Ву) [2017, боевик, триллер, криминал, HDRip] MVO

15 | 0

1.37 ГБ




Вы не можете начинать темы
Вы не можете отвечать на сообщения
Вы не можете редактировать свои сообщения
Вы не можете удалять свои сообщения
Вы не можете добавлять вложения

Перейти:  
 Вход
ppkBB3cker v.2 © 2008-2014 @ PPK
[ Time : 0.023s | 17 Queries | GZIP : Off ]

cron