img image001 image001 image001 image001 image001 image001 image001 image001 image001 image001 image001 image001 image001 image001 image001 image001

Planets Sun Sun Sun
Статистика раздачи
Автор: Снежана | Размер: 2.91 ГБ | Добавлен: 18 окт 2018
Раздают: 2    Качают: 0
Скачать торрент
Скачать торрент
Описание торрента

СообщениеДобавлено: 18 окт 2018 

Воспитание Аризоны / Raising Arizona

Перевод: Профессиональный (двухголосый)
Субтитры: Русские, английские
Формат: BDRip-AVC, MKV, H.264, AC3
Страна: США
Режиссер: Джоэл Коэн, Итан Коэн
Жанр: комедия, криминал, приключения
Продолжительность: 01:34:06
Год выпуска: 1987

В ролях: Николас Кейдж, Холли Хантер, Фрэнсис МакДорманд, Сэм МакМюррей, Джон Гудмен, Трей Уилсон, Рэндал «Текс» Кобб, Т.Дж. Кун

Описание: Хай был мелким грабителем. Эдвина служила в полиции. Они встречались регулярно — после того, как его в очередной раз хватали и везли в кутузку. А потом Хай и Эдвина поженились.
Эта странная пара была вполне счастлива, но у них не было детей, и тогда они решили похитить младенца, чтобы было кого воспитывать…




Видео: 1040x564 (16:9), 23.976 fps, AVC MPEG-4 (H.264), ~3270 kbps, 0.233 bit/pixel
Аудио #1: Русский: 48 kHz, AC3 Dolby Digital, 6 ch, ~384 kbps [Профессиональный (двухголосый)] R5
Аудио #2: Русский: 48 kHz, AC3 Dolby Digital, 6 ch, ~384 kbps [Авторский (одноголосый)] А. Гаврилов
Аудио #3: Английский: 48 kHz, AC3 Dolby Digital, 6 ch, ~384 kbps [Оригинал]

Format : Matroska
Format version : Version 4 / Version 2
File size : 2.91 GiB
Duration : 1h 34mn
Overall bit rate : 4 423 Kbps
Encoded date : UTC 2014-01-23 13:24:38
Writing application : mkvmerge v6.7.0 ('Back to the Ground') 32bit built on Jan 8 2014 15:03:17
Writing library : libebml v1.3.0 + libmatroska v1.4.1
Video
ID : 1
Format : AVC
Format/Info : Advanced Video Codec
Format profile :
Format settings, CABAC : Yes
Format settings, ReFrames : 11 frames
Codec ID : V_MPEG4/ISO/AVC
Duration : 1h 34mn
Bit rate : 3 270 Kbps
Width : 1 040 pixels
Height : 564 pixels
Display aspect ratio : 1.85:1
Frame rate mode : Constant
Frame rate : 23.976 fps
Color space : YUV
Chroma subsampling : 4:2:0
Bit depth : 8 bits
Scan type : Progressive
Bits/(Pixel*Frame) : 0.233
Stream size : 2.09 GiB (72%)
Writing library : x264 core 140 r2377 1ca7bb9
Encoding settings : cabac=1 / ref=11 / deblock=1:-2:-1 / analyse=0x3:0x133 / me=umh / subme=11 / psy=1 / psy_rd=1.00:0.05 / mixed_ref=1 / me_range=32 / chroma_me=1 / trellis=2 / 8x8dct=1 / cqm=0 / deadzone=21,11 / fast_pskip=0 / chroma_qp_offset=-3 / threads=12 / lookahead_threads=2 / sliced_threads=0 / nr=0 / decimate=1 / interlaced=0 / bluray_compat=0 / constrained_intra=0 / bframes=8 / b_pyramid=2 / b_adapt=2 / b_bias=0 / direct=3 / weightb=1 / open_gop=0 / weightp=2 / keyint=250 / keyint_min=23 / scenecut=40 / intra_refresh=0 / rc_lookahead=60 / rc=2pass / mbtree=1 / bitrate=3270 / ratetol=1.0 / qcomp=0.60 / qpmin=0 / qpmax=69 / qpstep=4 / cplxblur=20.0 / qblur=0.5 / ip_ratio=1.40 / aq=1:1.00
Language : English
Default : Yes
Forced : No
Audio #1
ID : 2
Format : AC-3
Format/Info : Audio Coding 3
Mode extension : CM (complete main)
Format settings, Endianness : Big
Codec ID : A_AC3
Duration : 1h 34mn
Bit rate mode : Constant
Bit rate : 384 Kbps
Channel(s) : 6 channels
Channel positions : Front: L C R, Side: L R, LFE
Sampling rate : 48.0 KHz
Bit depth : 16 bits
Compression mode : Lossy
Stream size : 258 MiB (9%)
Title : DVO BD CEE
Language : Russian
Default : Yes
Forced : No
Audio #2
ID : 3
Format : AC-3
Format/Info : Audio Coding 3
Mode extension : CM (complete main)
Format settings, Endianness : Big
Codec ID : A_AC3
Duration : 1h 34mn
Bit rate mode : Constant
Bit rate : 384 Kbps
Channel(s) : 6 channels
Channel positions : Front: L C R, Side: L R, LFE
Sampling rate : 48.0 KHz
Bit depth : 16 bits
Compression mode : Lossy
Stream size : 258 MiB (9%)
Title : AVO (A. Gavrilov)
Language : Russian
Default : No
Forced : No
Audio #3
ID : 4
Format : AC-3
Format/Info : Audio Coding 3
Mode extension : CM (complete main)
Format settings, Endianness : Big
Codec ID : A_AC3
Duration : 1h 34mn
Bit rate mode : Constant
Bit rate : 384 Kbps
Channel(s) : 6 channels
Channel positions : Front: L C R, Side: L R, LFE
Sampling rate : 48.0 KHz
Bit depth : 16 bits
Compression mode : Lossy
Stream size : 258 MiB (9%)
Title : Eng (Original)
Language : English
Default : No
Forced : No
Text #1
ID : 5
Format : UTF-8
Codec ID : S_TEXT/UTF8
Codec ID/Info : UTF-8 Plain Text
Title : Rus
Language : Russian
Default : No
Forced : No
Text #2
ID : 6
Format : UTF-8
Codec ID : S_TEXT/UTF8
Codec ID/Info : UTF-8 Plain Text
Title : Rus
Language : Russian
Default : No
Forced : No
Text #3
ID : 7
Format : UTF-8
Codec ID : S_TEXT/UTF8
Codec ID/Info : UTF-8 Plain Text
Title : Rus
Language : Russian
Default : No
Forced : No
Text #4
ID : 8
Format : UTF-8
Codec ID : S_TEXT/UTF8
Codec ID/Info : UTF-8 Plain Text
Title : English
Language : English
Default : No
Forced : No
Menu
00:00:00.000 : en:00:00:00.000
00:09:48.421 : en:00:09:48.421
00:22:06.366 : en:00:22:06.366
00:29:20.717 : en:00:29:20.717
00:37:21.112 : en:00:37:21.112
00:41:56.347 : en:00:41:56.347
00:45:02.741 : en:00:45:02.741
00:57:48.673 : en:00:57:48.673
01:07:27.585 : en:01:07:27.585
01:15:33.862 : en:01:15:33.862
01:21:58.079 : en:01:21:58.079
01:32:54.277 : en:01:32:54.277
01:38:19.143 : en:01:38:19.143
01:44:49.157 : en:01:44:49.157
01:48:57.280 : en:01:48:57.280
01:52:17.479 : en:01:52:17.479












   Похожие торренты   Торрент   Размер 
В этой теме нет новых непрочитанных сообщений. Воспитание Аризоны / Raising Arizona (Джоэл Коэн, Итан Коэн) [1987, комедия, криминал, приключения, BDRip-AVC] AVO

2 | 3

2.7 ГБ

В этой теме нет новых непрочитанных сообщений. Воспитание Аризоны / Raising Arizona (Джоэл Коэн, Итан Коэн) [1987, комедия, криминал, приключения, LowHDRip] DVO

6 | 0

741.93 МБ

В этой теме нет новых непрочитанных сообщений. Фарго / Fargo (Джоэл Коэн, Итан Коэн) [1996, триллер, драма, криминал, LowHDRip-AVC] MVO

20 | 0

744.23 МБ

В этой теме нет новых непрочитанных сообщений. Баллада Бастера Скраггса / The Ballad of Buster Scruggs (Итан Коэн, Джоэл Коэн ) [2018, мюзикл, драма, мелодрама, комедия, детектив, вестерн, WEBRip] DUB

179 | 12

1.46 ГБ

В этой теме нет новых непрочитанных сообщений. Баллада Бастера Скраггса / The Ballad of Buster Scruggs (Итан Коэн, Джоэл Коэн ) [2018, мюзикл, драма, мелодрама, комедия, детектив, вестерн, WEBRip-AVC] DUB

99 | 0

2.18 ГБ

В этой теме нет новых непрочитанных сообщений. Внутри Льюина Дэвиса / Inside Llewyn Davis (Итан Коэн, Джоэл Коэн) [2013, драма, музыка, BDRip-AVC] DUB / Драмы

6 | 0

1.46 ГБ

В этой теме нет новых непрочитанных сообщений. Воспитание Аризоны / Raising Arizona (1987) BDRip от HQCLUB

19 | 7

1.45 ГБ




Вы не можете начинать темы
Вы не можете отвечать на сообщения
Вы не можете редактировать свои сообщения
Вы не можете удалять свои сообщения
Вы не можете добавлять вложения

Перейти:  
 Вход
ppkBB3cker v.2 © 2008-2014 @ PPK
[ Time : 0.034s | 16 Queries | GZIP : Off ]

cron