img image001 image001 image001 image001 image001 image001 image001 image001 image001 image001 image001 image001 image001 image001 image001 image001

Planets Sun Sun Sun
Статистика раздачи
Автор: Снежана | Размер: 1.46 ГБ | Добавлен: 19 окт 2018
Раздают: 91    Качают: 0
Скачать торрент
Скачать торрент
Описание торрента

СообщениеДобавлено: 19 окт 2018 

Расправа / Reprisal


Перевод: Профессиональный (многоголосый закадровый) HDrezka Studio
Формат: HDRip-AVC, MKV, H.264, AC3
Страна: США, Великобритания
Режиссер: Брайан А Миллер
Жанр: боевик, триллер, криминал
Продолжительность: 01:29:09
Год выпуска: 2018
В ролях: Брюс Уиллис, Фрэнк Грилло, Джонатон Шек, Оливия Калпо, Натали Юра, Дядя Мурда, Наталья Софи Батлер, Тайлер Джон Олсон, Уасс М. Стивенс, Колин Эглсфилд

Описание: Служащему банка не даёт покоя жестокое ограбление, которое унесло жизнь его коллеги, и он решает выследить неуловимого и методичного грабителя-одиночку с помощью своего соседа - опытного полицейского на пенсии.



Видео: 1024x576 (16:9), 23.976 fps, AVC MPEG4 (x264), , ~2150 kbps avg, 0.152 bit/pixel
Аудио: 48 kHz, Audio Coding 3, 2 (L,R) ch, ~192.00 kbps avg

General
Unique ID : 218440004036278401789021565096506917514 (0xA45603B520EE9B2B073B1F1262AB828A)
Complete name : C:\Users\123\Downloads\Reprisal.2018_[tfile.ru].mkv
Format : Matroska
Format version : Version 4 / Version 2
File size : 1.46 GiB
Duration : 1h 29mn
Overall bit rate mode : Constant
Overall bit rate : 2 342 Kbps
Encoded date : UTC 2018-09-08 13:51:23
Writing application : Lavf56.36.100
Writing library : Lavf56.36.100

Video
ID : 2
Format : AVC
Format/Info : Advanced Video Codec
Format profile :
Format settings, CABAC : Yes
Format settings, ReFrames : 2 frames
Format settings, GOP : M=1, N=25
Codec ID : V_MPEG4/ISO/AVC
Duration : 1h 29mn
Bit rate mode : Constant
Bit rate : 2 150 Kbps
Width : 1 024 pixels
Height : 576 pixels
Display aspect ratio : 16:9
Frame rate mode : Constant
Frame rate : 23.976 fps
Color space : YUV
Chroma subsampling : 4:2:0
Bit depth : 8 bits
Scan type : Progressive
Bits/(Pixel*Frame) : 0.152
Stream size : 1.31 GiB (90%)
Language : English
Default : Yes
Forced : No
DURATION : 01:29:09.219000000
NUMBER_OF_FRAMES : 128253
NUMBER_OF_BYTES : 2722016253
_STATISTICS_WRITING_APP : mkvmerge v23.0.0 ('The Bride Said No') 64-bit
_STATISTICS_WRITING_DATE_UTC : 2018-09-08 13:51:23
_STATISTICS_TAGS : BPS DURATION NUMBER_OF_FRAMES NUMBER_OF_BYTES

Audio
ID : 1
Format : AC-3
Format/Info : Audio Coding 3
Mode extension : CM (complete main)
Format settings, Endianness : Big
Codec ID : A_AC3
Duration : 1h 29mn
Bit rate mode : Constant
Bit rate : 192 Kbps
Channel(s) : 2 channels
Channel positions : Front: L R
Sampling rate : 48.0 KHz
Bit depth : 32 bits
Compression mode : Lossy
Stream size : 122 MiB (8%)
Title : MVO | HDrezka Studio
Language : Russian
Default : Yes
Forced : No
DURATION : 01:29:09.664000000
NUMBER_OF_FRAMES : 167177
NUMBER_OF_BYTES : 128391936
_STATISTICS_WRITING_APP : mkvmerge v23.0.0 ('The Bride Said No') 64-bit
_STATISTICS_WRITING_DATE_UTC : 2018-09-08 13:51:23
_STATISTICS_TAGS : BPS DURATION NUMBER_OF_FRAMES NUMBER_OF_BYTES









   Похожие торренты   Торрент   Размер 
В этой теме нет новых непрочитанных сообщений. Расправа / Reprisal (Брайан А Миллер) [2018, боевик, триллер, криминал, WEBDLRip] MVO

58 | 0

1.37 ГБ

В этой теме нет новых непрочитанных сообщений. Расправа / Reprisal (Брайан А Миллер) [2018, боевик, триллер, криминал, WEBDLRip] MVO

25 | 1

1.46 ГБ

В этой теме нет новых непрочитанных сообщений. Адреналин [Расширенная версия] / Crank [Unrated] (Марк Невелдайн, Брайан Тейлор) [2006, боевик, триллер, криминал, BDRip-AVC] DUB

5 | 0

746.02 МБ

В этой теме нет новых непрочитанных сообщений. Суперфлай / Superfly (Директор Икс) [2018, криминал, триллер, боевик, HDRip] MVO

67 | 5

1.37 ГБ

В этой теме нет новых непрочитанных сообщений. Несчастный случай / Accident Man (Джесси Джонсон) [2018, боевик, триллер, криминал, HDRip] MVO

26 | 0

2.05 ГБ

В этой теме нет новых непрочитанных сообщений. 8 подруг Оушена / Ocean's Eight (Гэри Росс) [2018, боевик, триллер, комедия, криминал, HDRip] 2xDUB (rus,ukr)

18 | 3

2.05 ГБ

В этой теме нет новых непрочитанных сообщений. Пaссажир / The Cоmmuter (Жаума Кольет-Серра) [2018, боевик, триллер, драма, криминал, детектив, HDRip] DUB

175 | 9

1.4 ГБ




Вы не можете начинать темы
Вы не можете отвечать на сообщения
Вы не можете редактировать свои сообщения
Вы не можете удалять свои сообщения
Вы не можете добавлять вложения

Перейти:  
 Вход
ppkBB3cker v.2 © 2008-2014 @ PPK
[ Time : 0.026s | 18 Queries | GZIP : Off ]

cron