img image001 image001 image001 image001 image001 image001 image001 image001 image001 image001 image001 image001 image001 image001 image001 image001

Planets Sun Sun Sun
Статистика раздачи
Автор: Снежана | Размер: 2.19 ГБ | Добавлен: 22 окт 2018
Раздают: 9    Качают: 2
Скачать торрент
Скачать торрент
Описание торрента

СообщениеДобавлено: 22 окт 2018 

Джона Хекс / Jonah Hex


Перевод: Профессиональный (многоголосый закадровый), субтитры: отсутствуют
Формат: HDRip-AVC, MKV, H.264, AC3
Страна: США
Режиссер: Джимми Хейуорд
Жанр: боевик, триллер, драма, вестерн
Продолжительность: 01:21:28
Год выпуска: 2010
В ролях: Джош Бролин, Джон Малкович, Меган Фокс, Майкл Фассбендер, Уилл Арнетт, Джон Галлахер мл., Том Вопат, Майкл Шеннон, Уэс Бентли, Джулия Джонс

Описание: Конец XIX века. Джона Хекс — странник и наемный убийца, последний, к кому обращаются, чтобы поймать кого-то из людей или нечто нечеловеческое… Сторонясь людей, герой тем не менее, поддерживает связь с Лейлой, работницей борделя. По заданию военных он должен будет выследить и поймать Квентина Тернбалла, шамана вуду, который собирается очистить Юг конфедератов, собрав армию из мертвецов.



Видео: 1024x432 (2.40:1), 23.976 fps, AVC MPEG4 (x264), , ~2950 kbps avg, 0.278 bit/pixel
Аудио #1: Русский:48 kHz, AC3 Dolby Digital, 3/2 (L,C,R,l,r) + LFE ch, ~448kbps [Профессиональный (многоголосый закадровый)]
Аудио #2: Английский:48 kHz, AC3 Dolby Digital, 3/2 (L,C,R,l,r) + LFE ch, ~448kbps [Оригинал]

General
Unique ID : 226716854220441111112487090049368187328 (0xAA9013ED964FF4B8B990B671B257E1C0)
Complete name : C:\Users\123\Desktop\Jonah.Hex. 2010.BDRip-AVC Gambit (1) (1).mkv
Format : Matroska
Format version : Version 4 / Version 2
File size : 2.19 GiB
Duration : 1h 21mn
Overall bit rate mode : Constant
Overall bit rate : 3 845 Kbps
Encoded date : UTC 2018-10-20 05:12:47
Writing application : mkvmerge v7.4.0 ('Circles') 64bit built on Dec 12 2014 12:19:56
Writing library : libebml v1.3.0 + libmatroska v1.4.1

Video
ID : 1
Format : AVC
Format/Info : Advanced Video Codec
Format profile :
Format settings, CABAC : Yes
Format settings, ReFrames : 2 frames
Format settings, GOP : M=1, N=25
Codec ID : V_MPEG4/ISO/AVC
Duration : 1h 21mn
Bit rate mode : Constant
Bit rate : 2 950 Kbps
Width : 1 024 pixels
Height : 432 pixels
Display aspect ratio : 2.40:1
Frame rate mode : Constant
Frame rate : 23.976 fps
Color space : YUV
Chroma subsampling : 4:2:0
Bit depth : 8 bits
Scan type : Progressive
Bits/(Pixel*Frame) : 0.278
Stream size : 1.64 GiB (75%)
Title : Jonah Hex
Language : English
Default : Yes
Forced : No
DURATION : 01:21:30.432000000
NUMBER_OF_FRAMES : 152826
NUMBER_OF_BYTES : 273864192
_STATISTICS_WRITING_APP : mkvmerge v7.4.0 ('Circles') 64bit built on Dec 12 2014 12:19:56
_STATISTICS_WRITING_DATE_UTC : 2018-10-20 05:12:47
_STATISTICS_TAGS : BPS DURATION NUMBER_OF_FRAMES NUMBER_OF_BYTES

Audio #1
ID : 2
Format : AC-3
Format/Info : Audio Coding 3
Mode extension : CM (complete main)
Format settings, Endianness : Big
Codec ID : A_AC3
Duration : 1h 21mn
Bit rate mode : Constant
Bit rate : 448 Kbps
Channel(s) : 6 channels
Channel positions : Front: L C R, Side: L R, LFE
Sampling rate : 48.0 KHz
Compression mode : Lossy
Stream size : 261 MiB (12%)
Title : MVO
Language : Russian
Default : No
Forced : No
DURATION : 01:21:30.496000000
NUMBER_OF_FRAMES : 152828
NUMBER_OF_BYTES : 273867776
_STATISTICS_WRITING_APP : mkvmerge v7.4.0 ('Circles') 64bit built on Dec 12 2014 12:19:56
_STATISTICS_WRITING_DATE_UTC : 2018-10-20 05:12:47
_STATISTICS_TAGS : BPS DURATION NUMBER_OF_FRAMES NUMBER_OF_BYTES

Audio #2
ID : 3
Format : AC-3
Format/Info : Audio Coding 3
Mode extension : CM (complete main)
Format settings, Endianness : Big
Codec ID : A_AC3
Duration : 1h 21mn
Bit rate mode : Constant
Bit rate : 448 Kbps
Channel(s) : 6 channels
Channel positions : Front: L C R, Side: L R, LFE
Sampling rate : 48.0 KHz
Compression mode : Lossy
Stream size : 261 MiB (12%)
Title : Original
Language : English
Default : Yes
Forced : No
DURATION : 01:21:30.511000000
NUMBER_OF_FRAMES : 117255
NUMBER_OF_BYTES : 1801265672
_STATISTICS_WRITING_APP : mkvmerge v7.4.0 ('Circles') 64bit built on Dec 12 2014 12:19:56
_STATISTICS_WRITING_DATE_UTC : 2018-10-20 05:12:47
_STATISTICS_TAGS : BPS DURATION NUMBER_OF_FRAMES NUMBER_OF_BYTES












   Похожие торренты   Торрент   Размер 
В этой теме нет новых непрочитанных сообщений. Джона Хекс / Jonah Hex (2010) BDRemux 1080р | P

5 | 2

16.48 ГБ

В этой теме нет новых непрочитанных сообщений. Джона Хекс / Jonah Hex (2010) BDRip от Rulya74

139 | 27

1.98 ГБ

В этой теме нет новых непрочитанных сообщений. Джона Хекс / Jonah Hex (2010) BDRip 720p | Лицензия

734 | 97

3.75 ГБ

В этой теме нет новых непрочитанных сообщений. Строго на запад / Медленный Запад / Slow West (Джон Маклин) [2015, вестерн, драма, триллер, BDRip-AVC] DUB / Фильмы HDRip

3 | 1

2.18 ГБ

В этой теме нет новых непрочитанных сообщений. Город-бомба / Bomb City (Джэми Брукс) [2017, Боевик, триллер, драма, криминал, вестерн, HDRip] MVO / Драмы

0 | 2

1.46 ГБ

В этой теме нет новых непрочитанных сообщений. Условно свободен / Tercer grado (Джеффри Каупер / Geoffrey Cowper) [2015, Боевик, триллер, драма, мелодрама, BDRip-AVC] VO / Фильмы HDRip

57 | 2

1.8 ГБ

В этой теме нет новых непрочитанных сообщений. Убийца 2. Против всех / Sicario: Day of the Soldado / Sicario 2: Soldado (Стефано Соллима) [2018, боевик, триллер, драма, криминал, BDRip-AVC] DUB / Фильмы HDRip

27 | 3

2.86 ГБ




Вы не можете начинать темы
Вы не можете отвечать на сообщения
Вы не можете редактировать свои сообщения
Вы не можете удалять свои сообщения
Вы не можете добавлять вложения

Перейти:  
 Вход
ppkBB3cker v.2 © 2008-2014 @ PPK
[ Time : 0.029s | 17 Queries | GZIP : Off ]

cron