img image001 image001 image001 image001 image001 image001 image001 image001 image001 image001 image001 image001 image001 image001 image001 image001

Planets Sun Sun Sun
Статистика раздачи
Автор: Снежана | Размер: 3.67 ГБ | Добавлен: 22 окт 2018
Раздают: 5    Качают: 0
Скачать торрент
Скачать торрент
Описание торрента

СообщениеДобавлено: 22 окт 2018 

12 обезьян / Twelve Monkeys

Перевод: Профессиональный (полное дублирование)
Субтитры: Русские, английские
Формат: BDRip-AVC, MKV, H.264, AC3
Страна: США
Режиссер: Терри Гиллиам
Жанр: фантастика, триллер, детектив
Продолжительность: 02:09:30
Год выпуска: 1995

В ролях: Брюс Уиллис, Мэдлин Стоу, Брэд Питт, Джозеф Мелито, Джон Седа, Майкл Чэнс, Вернон Кэмпбелл, Х. Майкл Уоллс

Описание: 2035 год… Чудовищный, неизлечимый вирус уничтожил пять миллиардов человек, то есть 99% населения Земли. Оставшиеся в живых люди вынуждены обитать под землей.
Уголовник Джеймс Коул добровольно отправляется в опасное путешествие на машине времени. Он должен попасть в прошлое, чтобы помочь ученым найти источник возникновения этого ужасного вируса и раскрыть загадку таинственных «Двенадцати обезьян»…




Видео: 1024x552 (16:9), 23.976 fps, AVC MPEG-4 (H.264), ~3222 kbps, 0.238 bit/pixel
Аудио #1: Русский: 48 kHz, AC3 Dolby Digital, 6 ch, ~640 kbps [Профессиональный (полное дублирование)]
Аудио #2: Английский: 48 kHz, AC3 Dolby Digital, 6 ch, ~640 kbps [Оригинал]

Format : Matroska
Format version : Version 2
File size : 3.67 GiB
Duration : 2 h 9 min
Overall bit rate : 4 056 kb/s
Movie name : Twelve Monkeys 1995 REMASTERED from ExKinoRay
Encoded date : UTC 2018-10-19 11:56:51
Writing application : mkvmerge v5.6.0 ('Kenya Kane') built on May 27 2012 16:44:04
Writing library : libebml v1.2.3 + libmatroska v1.3.0

Video
ID : 1
Format : AVC
Format/Info : Advanced Video Codec
Format profile :
Format settings, CABAC : Yes
Format settings, ReFrames : 11 frames
Codec ID : V_MPEG4/ISO/AVC
Duration : 2 h 9 min
Bit rate : 3 222 kb/s
Width : 1 024 pixels
Height : 552 pixels
Display aspect ratio : 1.85:1
Frame rate mode : Constant
Frame rate : 23.976 (23976/1000) FPS
Color space : YUV
Chroma subsampling : 4:2:0
Bit depth : 8 bits
Scan type : Progressive
Bits/(Pixel*Frame) : 0.238
Stream size : 2.84 GiB (77%)
Title : Enigma
Writing library : x264 core 152 r2851 ba24899
Encoding settings : cabac=1 / ref=11 / deblock=1:-2:-2 / analyse=0x3:0x113 / me=umh / subme=10 / psy=1 / psy_rd=0.97:0.02 / mixed_ref=1 / me_range=32 / chroma_me=1 / trellis=2 / 8x8dct=1 / cqm=0 / deadzone=21,11 / fast_pskip=0 / chroma_qp_offset=-3 / threads=12 / lookahead_threads=3 / sliced_threads=0 / nr=0 / decimate=0 / interlaced=0 / bluray_compat=0 / constrained_intra=0 / bframes=12 / b_pyramid=2 / b_adapt=2 / b_bias=0 / direct=3 / weightb=1 / open_gop=0 / weightp=2 / keyint=240 / keyint_min=23 / scenecut=40 / intra_refresh=0 / rc_lookahead=40 / rc=2pass / mbtree=0 / bitrate=3222 / ratetol=1.0 / qcomp=0.65 / qpmin=0 / qpmax=51 / qpstep=4 / cplxblur=20.0 / qblur=0.5 / vbv_maxrate=50000 / vbv_bufsize=62500 / nal_hrd=none / filler=0 / ip_ratio=1.30 / pb_ratio=1.20 / aq=1:0.80
Language : English
Default : Yes
Forced : No
Color range : Limited
Color primaries : BT.709
Transfer characteristics : BT.709
Matrix coefficients : BT.709

Audio #1
ID : 2
Format : AC-3
Format/Info : Audio Coding 3
Mode extension : CM (complete main)
Format settings, Endianness : Big
Codec ID : A_AC3
Duration : 2 h 9 min
Bit rate mode : Constant
Bit rate : 384 kb/s
Channel(s) : 6 channels
Channel positions : Front: L C R, Side: L R, LFE
Sampling rate : 48.0 kHz
Frame rate : 31.250 FPS (1536 spf)
Compression mode : Lossy
Stream size : 356 MiB (9%)
Title : Dub
Language : Russian
Default : Yes
Forced : No

Audio #2
ID : 3
Format : AC-3
Format/Info : Audio Coding 3
Mode extension : CM (complete main)
Format settings, Endianness : Big
Codec ID : A_AC3
Duration : 2 h 9 min
Bit rate mode : Constant
Bit rate : 448 kb/s
Channel(s) : 6 channels
Channel positions : Front: L C R, Side: L R, LFE
Sampling rate : 48.0 kHz
Frame rate : 31.250 FPS (1536 spf)
Compression mode : Lossy
Stream size : 415 MiB (11%)
Language : English
Default : No
Forced : No

Text #1
ID : 4
Format : UTF-8
Codec ID : S_TEXT/UTF8
Codec ID/Info : UTF-8 Plain Text
Title : Full
Language : Russian
Default : No
Forced : No

Text #2
ID : 5
Format : UTF-8
Codec ID : S_TEXT/UTF8
Codec ID/Info : UTF-8 Plain Text
Language : English
Default : No
Forced : No

Menu
00:00:00.000 : en:The Volunteer (Main Titles)
00:10:55.738 : en:Baltimore -- April 1990
00:21:27.995 : en:The Wrong Time
00:29:26.181 : en:Monkey Business
00:42:03.896 : en:Right on the Money
00:53:13.273 : en:The Same Dream
01:06:31.570 : en:Going After Jeffrey
01:15:49.670 : en:It Was My Idea?
01:26:02.407 : en:What's Real And What's Not
01:36:25.321 : en:I Want To Stay Here
01:46:31.468 : en:The Movie Never Changes
01:57:31.335 : en:You Can Still Be A Hero
02:05:30.708 : en:End Titles












   Похожие торренты   Торрент   Размер 
В этой теме нет новых непрочитанных сообщений. 12 обезьян / Twelve Monkeys (Терри Гиллиам) [1995, фантастика, триллер, детектив, BDRip-AVC] DUB / Фантастика

7 | 0

2.17 ГБ

В этой теме нет новых непрочитанных сообщений. Теорема Зеро / The Zero Theorem (Терри Гиллиам) [2013, фантастика, триллер, драма, комедия, HDRip] AVO

6 | 0

1.45 ГБ

В этой теме нет новых непрочитанных сообщений. 12 обезьян / Twelve Monkeys (1995) HDRip-AVC от Leo.pard | D

192 | 18

745.24 МБ

В этой теме нет новых непрочитанных сообщений. 12 обезьян / Twelve Monkeys (1995) BDRip 1080p | D, P, P2, A

52 | 11

26.71 ГБ

В этой теме нет новых непрочитанных сообщений. Теорема Зеро / The Zero Theorem (Терри Гиллиам) [2013, фантастика, триллер, драма, комедия, LowHDRip] DUB

8 | 0

746.26 МБ

В этой теме нет новых непрочитанных сообщений. Братья Гримм / The Brothers Grimm (Терри Гиллиам) [2005, фэнтези, боевик, триллер, комедия, приключения, LowHDRip-AVC] DUB / Фантастика

3 | 0

744.85 МБ

В этой теме нет новых непрочитанных сообщений. 12 обезьян, 3 сезон 1-10 серия из 10 / 12 Monkeys [LostFilm] (Дэвид Гроссман, Майкл Ваксман, Джон Бэдэм) [2017, фантастика, триллер, драма, детектив, приключения, WEBRip, P]

29 | 14

5.45 ГБ




Вы не можете начинать темы
Вы не можете отвечать на сообщения
Вы не можете редактировать свои сообщения
Вы не можете удалять свои сообщения
Вы не можете добавлять вложения

Перейти:  
 Вход
ppkBB3cker v.2 © 2008-2014 @ PPK
[ Time : 0.030s | 16 Queries | GZIP : Off ]

cron