img image001 image001 image001 image001 image001 image001 image001 image001 image001 image001 image001 image001 image001 image001 image001 image001

Planets Sun Sun Sun
Статистика раздачи
Автор: Снежана | Размер: 1.47 ГБ | Добавлен: 22 июл 2013
Раздают: 46    Качают: 64
Скачать торрент
Скачать торрент
Описание торрента

СообщениеДобавлено: 22 июл 2013 


Бесстрашная гиена 3 / Бесстрашный мастер / Fearless Hyena 3 / Fearless Master
Год выхода: 1980
Жанр: Боевые искусства
Режиссер: Питер Ло / Peter Lo
В ролях: Джеки Чен (не путать с Джеки Чаном), Боло Янг, Брюс Тай, Джон Чеун, Сань Куэй

О фильме: В наследство от отца Джеки (Джеки Чен) получает волшебный "летающий" талисман. По легенде, его обладатель - непобедим. Но не так просто сохранить талисман, о котором мечтают многие. "Змеиная" банда пытается любой ценой заполучить реликвию. Не полагаясь только на магию, Джеки в совершенстве овладевает искусством рукопашного боя.




Выпущено: Китай
Продолжительность: 01:22:29
Перевод:
Профессиональный (одноголосый, закадровый)

Кодек: XviD - Совместимо с бытовыми DVD-плеерами
Качество: DVDRip
Видео: 720x544 (1.32:1), 29.970 fps, XviD build 65 ~2342 kbps avg, 0.20 bit/pixel
Аудио: 48 kHz, AC3 Dolby Digital, 2/0 (L,R) ch, ~192 kbps


Общее
Полное имя: Besstrashnaj.giena.3.1980.XviD.DVDRip.VO_SergV.avi
Формат : AVI
Формат/Информация : Audio Video Interleave
Размер файла : 1,47 Гбайт
Продолжительность : 1 ч. 22 м.
Общий поток : 2546 Кбит/сек
Название фильма : Besstrashnaj.giena.3.1980.XviD.DVDRip.VO_SergV
Программа кодирования : VirtualDubMod 1.5.10.3 | www.virtualdub-fr.org || (build 2550/release)
Примечание : Рип от SergV

Видео
Идентификатор : 0
Формат : MPEG-4 Visual
Профиль формата : Advanced Simple@L5
Параметр BVOP формата : 2
Параметр QPel формата : Нет
Параметр GMC формата : Без точки перехода
Параметр матрицы формата : Default (MPEG)
Идентификатор кодека : XVID
Идентификатор кодека/Подсказка : XviD
Продолжительность : 1 ч. 22 м.
Битрейт : 2342 Кбит/сек
Ширина : 720 пикселей
Высота : 544 пикселя
Соотношение сторон : 4:3
Частота кадров : 29,970 кадров/сек
Цветовое пространство : YUV
Субдискретизация насыщенности : 4:2:0
Битовая глубина : 8 бит
Тип развёртки : Прогрессивная
Метод сжатия : С потерями
Бит/(Пиксели*Кадры) : 0.200
Размер потока : 1,35 Гбайт (92%)
Библиотека кодирования : XviD 65

Аудио
Идентификатор : 1
Формат : AC-3
Формат/Информация : Audio Coding 3
Расширение режима : CM (complete main)
Параметр Endianness формата : Big
Идентификатор кодека : 2000
Продолжительность : 1 ч. 22 м.
Вид битрейта : Постоянный
Битрейт : 192 Кбит/сек
Каналы : 2 канала
Расположение каналов : Front: L R
Частота : 48,0 КГц
Битовая глубина : 16 бит
Метод сжатия : С потерями
Размер потока : 113 Мбайт (8%)
Выравнивание : Разделение по промежуткам
Продолжительность промежутка : 33 мс. (1,00 видеокадр)
Время предзагрузки промежутка : 500 мс.



Релиз от:



   Похожие торренты   Торрент   Размер 
В этой теме нет новых непрочитанных сообщений. Бесстрашная гиена 2 / Long teng hu yue / Fearless hyena II (1980) DVDRip от KinoZalSat

23 | 7

1.36 ГБ

В этой теме нет новых непрочитанных сообщений. Бесстрашная гиена / Fearless Hyena / Xiao quan guai zhao (1979) DVDRip-AVC | P1

2 | 2

2.19 ГБ

В этой теме нет новых непрочитанных сообщений. Бесстрашная гиена / Xiao quan guai zhao / The Fearless Hyena (1979) DVDRip от KinoZalSat

12 | 3

1.37 ГБ

В этой теме нет новых непрочитанных сообщений. Бесстрашная гиена 2 / The Fearless Hyena Part II / Long teng hu yue (1983) DVDRip от KINOREAKTOR (Sheikn)

8 | 4

1.84 ГБ

В этой теме нет новых непрочитанных сообщений. Бесстрашная гиена / Fearless Hyena / Xiao quan guai zhao (1979) BDRip от HQCLUB

141 | 11

1.45 ГБ

В этой теме нет новых непрочитанных сообщений. Бесстрашная гиена / Fearless Hyena / Xiao quan guai zhao (1979) BDRip 720p от HQCLUB

88 | 30

6.74 ГБ

В этой теме нет новых непрочитанных сообщений. Бесстрашный / Fearless (2006) DVDRip от Kinobomond

67 | 23

2.05 ГБ




Вы не можете начинать темы
Вы не можете отвечать на сообщения
Вы не можете редактировать свои сообщения
Вы не можете удалять свои сообщения
Вы не можете добавлять вложения

Перейти:  
cron
 Вход
ppkBB3cker v.2 © 2008-2014 @ PPK
[ Time : 0.028s | 17 Queries | GZIP : Off ]

cron