img image001 image001 image001 image001 image001 image001 image001 image001 image001 image001 image001 image001 image001 image001 image001

Planets Sun Sun Sun
Статистика раздачи
Автор: Снежана | Размер: 864.34 МБ | Добавлен: 05 ноя 2018
Раздают: 11    Качают: 0
Скачать торрент
Скачать торрент
Описание торрента

СообщениеДобавлено: 05 ноя 2018 

Информация о фильме
Название: Горная лихорадка
Оригинальное название: Mountain Fever
Год выхода: 2017
Жанр: Триллер, драма
Режиссер: Хендрик Фэллер
В ролях: Жюльен Каплан, Аня Корзун, Жюльен Мишель, Том Миллер
О фильме:
Оказавшись в заложникам в своём же доме, неумелый англичанин вынужден объединиться со своим захватчиком, чтобы вместе отбиваться от других выживших после смертельной эпидемии гриппа.

Страна: Франция, Великобритания
Продолжительность: 01:18:14
Перевод: Любительский (двухголосый закадровый) | HiWay Grope
Файл
Кодек: XviD
Качество: WEBRip
Видео: 720x224, 25 fps, ~1150 kbps, 0.28 bit/pixel
Звук:
Аудио rus: AC3, 48 kHz, 6 ch, 384 Kbps
Субтитры: отсутствуют
Реклама: присутствует
Семпл
General
Complete name : D:Fever.2018.WEBRip.HiWayGropeFever.2018.WEBRip.HiWayGrope.avi
Format : AVI
Format/Info : Audio Video Interleave
File size : 864 MiB
Duration : 1 h 18 min
Overall bit rate : 1 544 kb/s
Writing application : VirtualDubMod 1.5.10.3 (build 2550/release)
Writing library : VirtualDubMod build 2550/release
Video
ID : 0
Format : MPEG-4 Visual
Format profile : Simple@L5
Format settings : BVOP1
Format settings, BVOP : 1
Format settings, QPel : No
Format settings, GMC : No warppoints
Format settings, Matrix : Default (MPEG)
Codec ID : XVID
Codec ID/Hint : XviD
Duration : 1 h 18 min
Bit rate : 1 151 kb/s
Width : 720 pixels
Height : 224 pixels
Display aspect ratio : 2.35:1
Frame rate : 25.000 FPS
Color space : YUV
Chroma subsampling : 4:2:0
Bit depth : 8 bits
Scan type : Progressive
Compression mode : Lossy
Bits/(Pixel*Frame) : 0.285
Stream size : 644 MiB (75%)
Writing library : XviD 67
Audio
ID : 1
Format : AC-3
Format/Info : Audio Coding 3
Codec ID : 2000
Duration : 1 h 18 min
Bit rate mode : Constant
Bit rate : 384 kb/s
Channel(s) : 6 channels
Channel positions : Front: L C R, Side: L R, LFE
Sampling rate : 48.0 kHz
Frame rate : 31.250 FPS (1536 SPF)
Bit depth : 16 bits
Compression mode : Lossy
Stream size : 215 MiB (25%)
Alignment : Split accross interleaves
Interleave, duration : 40 ms (1.00 video frame)
Interleave, preload duration : 500 ms
Service kind : Complete Main


Релиз от: HiWay Grope



   Похожие торренты   Торрент   Размер 
В этой теме нет новых непрочитанных сообщений. Горная лихорадка / Mountain Fever (2017) WEBRip 720p | L2

0 | 0

1.56 ГБ

В этой теме нет новых непрочитанных сообщений. Пляжная лихорадка / Лихорадка на побережье / Beach Fever (1987) VHSRip | А

2 | 0

745.47 МБ

В этой теме нет новых непрочитанных сообщений. Тюльпанная лихорадка / Tulip Fever (2017) CAMRip | D

38 | 12

1.37 ГБ

В этой теме нет новых непрочитанных сообщений. Тюльпанная лихорадка / Tulip Fever (2017) BDRip | iTunes

0 | 0

2.16 ГБ

В этой теме нет новых непрочитанных сообщений. Тюльпанная лихорадка / Tulip Fever (2017) BDRip-AVC от ExKinoRay | iTunes

16 | 3

747.04 МБ

В этой теме нет новых непрочитанных сообщений. Тюльпанная лихорадка / Tulip Fever (2017) BDRip-AVC от New-Team | iTunes

142 | 8

1.28 ГБ

В этой теме нет новых непрочитанных сообщений. Тюльпанная лихорадка / Tulip Fever (2017) BDRip от MegaPeer | iTunes

0 | 0

1.41 ГБ




Вы не можете начинать темы
Вы не можете отвечать на сообщения
Вы не можете редактировать свои сообщения
Вы не можете удалять свои сообщения
Вы не можете добавлять вложения

Перейти:  
 Вход
ppkBB3cker v.2 © 2008-2014 @ PPK
[ Time : 0.026s | 16 Queries | GZIP : Off ]

cron