img image001 image001 image001 image001 image001 image001 image001 image001 image001 image001 image001 image001 image001 image001 image001 image001

Planets Sun Sun Sun
Статистика раздачи
Автор: Снежана | Размер: 1.5 ГБ | Добавлен: 07 ноя 2018
Раздают: 29    Качают: 0
Скачать торрент
Скачать торрент
Описание торрента

СообщениеДобавлено: 07 ноя 2018 

Пробуждение / Awaken


Перевод: Профессиональный (многоголосый закадровый), субтитры: отсутствуют
Формат: WEBDLRip-AVC, MKV, H.264, AC3
Страна: США
Режиссер: Дэрик Лу
Жанр: фантастика, драма, мелодрама
Продолжительность: 01:35:44
Год выпуска: 2012
В ролях: Кори Севьер, Джордан Лэдд, Райан Алосио, Рени Дориан, Ким Пуарье
Описание:
В канун нового года владелец кофейни знакомится с симпатичной девушкой, которая спустя несколько минут трагически погибает под колесами автомобиля. Событие поражает его, но по ночам эта девушка начинает являться к нему в снах и у них начинается роман….



Видео: 1024х452 (2,25:1), 24 fps, AVC MPEG-4 (H.264), ~2207 kbps, 0.181 bit/pixel
Аудио: 48 kHz, AC3 Dolby Digital, 2/0 (L,R) ch, ~192 kbps
Общее
Уникальный идентификатор : 148916276057892775059633832357978950798 (0x70083B4554AB83D73CC3CFBA0EE7CC8E)
Полное имя : H:\Новая папка\Awaken.2012.WEBDLRip-AVC_amnedos.mkv
Формат : Matroska
Версия формата : Version 4 / Version 2
Размер файла : 1,50 Гбайт
Продолжительность : 1 ч. 35 м.
Режим общего битрейта : Переменный
Общий поток : 2244 Кбит/сек
Программа кодирования : XviD4PSP 7.0.458 DAILY
Библиотека кодирования : Lavf57.71.100
Авторское право : gxtkf
ErrorDetectionType : Per level 1
ENCODING_INFO : AVI > MKV 1080p / MPEG4 > X264 CBR 2200kbps HQ / MP3 > AC3 CBR 192kbps

Видео
Идентификатор : 1
Формат : AVC
Формат/Информация : Advanced Video Codec
Профиль формата :
Настройки формата : CABAC / 4 Ref Frames
Параметр CABAC формата : Да
Параметр RefFrames формата : 4 кадра
Идентификатор кодека : V_MPEG4/ISO/AVC
Продолжительность : 1 ч. 35 м.
Вид битрейта : Переменный
Битрейт : 2007 Кбит/сек
Номинальный битрейт : 2200 Кбит/сек
Максимальный битрейт : 2200 Кбит/сек
Ширина : 1024 пикселя
Высота : 452 пикселя
Соотношение сторон : 2,25:1
Режим частоты кадров : Постоянный
Частота кадров : 24,000 кадра/сек
Цветовое пространство : YUV
Субдискретизация насыщенности : 4:2:0
Битовая глубина : 8 бит
Тип развёртки : Прогрессивная
Бит/(Пиксели*Кадры) : 0.181
Размер потока : 1,34 Гбайт (89%)
Библиотека кодирования : x264 core 157 r2901M 7d0ff22
Настройки программы : cabac=1 / ref=3 / deblock=1:-1:-1 / analyse=0x3:0x133 / me=hex / subme=7 / psy=1 / psy_rd=1.00:0.20 / mixed_ref=1 / me_range=16 / chroma_me=1 / trellis=1 / 8x8dct=1 / cqm=0 / deadzone=21,11 / fast_pskip=1 / chroma_qp_offset=-3 / threads=6 / lookahead_threads=1 / sliced_threads=0 / nr=0 / decimate=1 / interlaced=0 / bluray_compat=0 / constrained_intra=0 / bframes=3 / b_pyramid=2 / b_adapt=2 / b_bias=0 / direct=3 / weightb=1 / open_gop=0 / weightp=2 / keyint=240 / keyint_min=24 / scenecut=40 / intra_refresh=0 / rc_lookahead=50 / rc=cbr / mbtree=1 / bitrate=2200 / ratetol=1.0 / qcomp=0.80 / qpmin=0 / qpmax=69 / qpstep=4 / vbv_maxrate=2200 / vbv_bufsize=1571 / nal_hrd=vbr / filler=0 / ip_ratio=2.00 / aq=1:1.00
Default : Да
Forced : Нет

Аудио
Идентификатор : 2
Формат : AC-3
Формат/Информация : Audio Coding 3
Идентификатор кодека : A_AC3
Продолжительность : 1 ч. 35 м.
Вид битрейта : Постоянный
Битрейт : 192 Кбит/сек
Каналы : 2 канала
Расположение каналов : Front: L R
Частота : 48,0 КГц
Частота кадров : 31,250 кадров/сек (1536 SPF)
Битовая глубина : 16 бит
Метод сжатия : С потерями
Размер потока : 131 Мбайт (9%)
ServiceKind/String : Complete Main
Default : Да
Forced : Нет


Трейлеры:









   Похожие торренты   Торрент   Размер 
В этой теме нет новых непрочитанных сообщений. Разрыв последовательности / Sequence Break (Грэхэм Скиппер) [2017, фантастика, ужасы, мелодрама, WEBDLRip] MVO / Фантастика

3 | 0

1.35 ГБ

В этой теме нет новых непрочитанных сообщений. Леон должен умереть / Leon muss sterben (Ларс Хенрикс) [2017, Фантастика, Мелодрама, Комедия, WEBDLRip] MVO / Фантастика

1 | 0

1.3 ГБ

В этой теме нет новых непрочитанных сообщений. Угли / Embers (Клэр Карре) [2015, фантастика, драма, WEBDLRip] VO / Фантастика

4 | 0

1.46 ГБ

В этой теме нет новых непрочитанных сообщений. Местный / Native (Даниэль Фицсиммонс) [2016, фантастика, драма, WEBDLRip] MVO / Фантастика

2 | 0

1.36 ГБ

В этой теме нет новых непрочитанных сообщений. Кажется, мы остались одни / I Think We're Alone Now (Майк Маковски) [2018, фантастика, драма, WEBDLRip] MVO / Фантастика

32 | 0

1.46 ГБ

В этой теме нет новых непрочитанных сообщений. Спутник Юпитера / Jupiter holdja (Корнел Мундруцо) [2017, фантастика, драма, WEBDLRip] MVO / Фантастика

16 | 0

1.37 ГБ

В этой теме нет новых непрочитанных сообщений. Мы забыли даже то, чего не знали / We've Forgotten More Than We Ever Knew (Томас Вудроу) [2017, Фантастика, драма, WEBDLRip] MVO / Фантастика

4 | 0

1.47 ГБ




Вы не можете начинать темы
Вы не можете отвечать на сообщения
Вы не можете редактировать свои сообщения
Вы не можете удалять свои сообщения
Вы не можете добавлять вложения

Перейти:  
 Вход
ppkBB3cker v.2 © 2008-2014 @ PPK
[ Time : 0.119s | 17 Queries | GZIP : Off ]

cron