img image001 image001 image001 image001 image001 image001 image001 image001 image001 image001 image001 image001 image001 image001 image001 image001

Planets Sun Sun Sun
Статистика раздачи
Автор: Снежана | Размер: 413.06 МБ | Добавлен: 08 ноя 2018
Раздают: 45    Качают: 1
Скачать торрент
Скачать торрент
Описание торрента

СообщениеДобавлено: 08 ноя 2018 

Кабель / Cord
Оценка релиза: 

Перевод: Любительский (одноголосый) datynet; перевод: Куценко, субтитры: отсутствуют
Формат: WEBRip-AVC, MKV, H.264, MP3
Страна: Колумбия, Франция, Германия.
Режиссер: Пабло Гонзалез / Pablo Gonzalez
Жанр: ужасы, фантастика, фэнтези, мелодрама
Продолжительность: 01:04:22
Год выпуска: 2015
В ролях: Лаура Де Бур, Майкл Шумахер, Кристиан Веверка.
Описание: В постапокалиптическом мире нескончаемой зимы под землей живет редкий отряд чужаков. Из-за их антисанитарных условий сексуальный контакт стал опасным. Мастурбация стала парадигмой сексуального опыта, и с этой целью появилось множество низкотехнологичных устройств. В этой мрачной реальности Чуперски (торговец такими машинами) и Таня (сексуальная наркоманка) заключают сделку: она позволит ему экспериментировать новые устройства на своем теле в обмен на удовольствие. Однако вскоре их отношения выходят из-под контроля.



Видео: 1066x480 (2.221), 23.98 fps, MPEG4 Video (H264) ~703 kbps avg, 0.057 bit/pixel
Аудио: 48 kHz, MPEG Layer 3, 2 ch, ~192.00 kbps avg
Доп. информация: 4 победы и 2 номинации:
Cartagena Film Festival 2015
Fantasporto 2016
Palmares Mauvais Genre Festival 2016




General
Unique ID : 241299568980376637346308856817577250409 (0xB5889B46A51180A0A63374776B6E4E69)
Complete name : Cord.2015.mkv
Format : Matroska
Format version : Version 4 / Version 2
File size : 413 MiB
Duration : 1 h 4 min
Overall bit rate : 897 kb/s
Encoded date : UTC 2018-11-07 09:51:54
Writing application : mkvmerge v9.6.0 ('Slave To Your Mind') 64bit
Writing library : libebml v1.3.4 + libmatroska v1.4.5

Video
ID : 1
Format : AVC
Format/Info : Advanced Video Codec
Format profile :
Format settings, CABAC : Yes
Format settings, RefFrames : 3 frames
Codec ID : V_MPEG4/ISO/AVC
Duration : 1 h 4 min
Bit rate : 703 kb/s
Width : 1 066 pixels
Height : 480 pixels
Display aspect ratio : 2.221
Frame rate mode : Constant
Frame rate : 23.976 (23976/1000) FPS
Color space : YUV
Chroma subsampling : 4:2:0
Bit depth : 8 bits
Scan type : Progressive
Bits/(Pixel*Frame) : 0.057
Stream size : 324 MiB (78%)
Writing library : x264 core 142
Encoding settings : cabac=1 / ref=3 / deblock=1:0:0 / analyse=0x1:0x111 / me=hex / subme=7 / psy=1 / psy_rd=1.00:0.00 / mixed_ref=1 / me_range=16 / chroma_me=1 / trellis=1 / 8x8dct=0 / cqm=0 / deadzone=21,11 / fast_pskip=1 / chroma_qp_offset=-2 / threads=6 / lookahead_threads=1 / sliced_threads=0 / nr=0 / decimate=1 / interlaced=0 / bluray_compat=0 / constrained_intra=0 / bframes=3 / b_pyramid=1 / b_adapt=1 / b_bias=0 / direct=1 / weightb=1 / open_gop=0 / weightp=2 / keyint=250 / keyint_min=25 / scenecut=40 / intra_refresh=0 / rc_lookahead=40 / rc=crf / mbtree=1 / crf=22.0 / qcomp=0.60 / qpmin=10 / qpmax=51 / qpstep=4 / ip_ratio=1.41 / aq=1:1.00
Default : Yes
Forced : No

Audio
ID : 2
Format : MPEG Audio
Format version : Version 1
Format profile : Layer 3
Codec ID : A_MPEG/L3
Codec ID/Hint : MP3
Duration : 1 h 4 min
Bit rate mode : Constant
Bit rate : 192 kb/s
Channel(s) : 2 channels
Sampling rate : 48.0 kHz
Frame rate : 41.667 FPS (1152 SPF)
Compression mode : Lossy
Stream size : 88.4 MiB (21%)
Default : Yes
Forced : No




















   Похожие торренты   Торрент   Размер 
В этой теме нет новых непрочитанных сообщений. Ночь демонов 2 / Night of the Demons 2 (Брайан Тренчард-Смит) [1994, ужасы, фэнтези, мелодрама, комедия, BDRip] MVO / Мистика

2 | 0

1.46 ГБ

В этой теме нет новых непрочитанных сообщений. Муза / Muse (Джон Дж. Барр IV) [2017, фантастика, триллер, ужасы, фэнтези, мелодрама, драма, WEBDLRip] MVO

13 | 0

1.37 ГБ

В этой теме нет новых непрочитанных сообщений. Дракула / Дракула Брэма Стокера / Dracula (Фрэнсис Форд Коппола) [Mastered in 4K] [1992, ужасы, фэнтези, мелодрама, LowHDRip-AVC] DUB / Мистика

11 | 0

748.23 МБ

В этой теме нет новых непрочитанных сообщений. Третья волна зомби / The Cured (Дэвид Фрейн) [2017, ужасы, фантастика, драма, WEBRip] DUB / Мистика

15 | 0

1.36 ГБ

В этой теме нет новых непрочитанных сообщений. Чёрный ворон (1-64 серии из 64) (Борис Горлов, Андрей Кравчук, Игорь Москвитин) [2001-2004, драма, криминал, мелодрама, мистика, ужасы, экранизация, WEBRip-AVC]

10 | 24

38 ГБ

В этой теме нет новых непрочитанных сообщений. Снежный шар / A Snow Globe Christmas (Джоди Бинсток) [2013, фэнтези, драма, мелодрама, семейный, WEBRip] MVO / Фантастика

29 | 2

1.46 ГБ

В этой теме нет новых непрочитанных сообщений. Тайна дома с часами [Трейлер№2] / The House with a Clock in Its Walls (Элай Рот) [2018, ужасы, фантастика, фэнтези, триллер, детектив, семейный, WEBRip] DUB

58 | 2

41.2 МБ




Вы не можете начинать темы
Вы не можете отвечать на сообщения
Вы не можете редактировать свои сообщения
Вы не можете удалять свои сообщения
Вы не можете добавлять вложения

Перейти:  
 Вход
ppkBB3cker v.2 © 2008-2014 @ PPK
[ Time : 4.894s | 15 Queries | GZIP : Off ]

cron