img image001 image001 image001 image001 image001 image001 image001 image001 image001 image001 image001 image001 image001 image001 image001

Planets Sun Sun Sun
Статистика раздачи
Автор: Снежана | Размер: 1.57 ГБ | Добавлен: 19 ноя 2018
Раздают: 42    Качают: 7
Скачать торрент
Скачать торрент
Описание торрента

СообщениеДобавлено: 19 ноя 2018 

Дьяволица / Люциферина / Luciferina
Оценка релиза: 

Перевод: Любительский (одноголосый)datynet; перевод: Куценко, субтитры: отсутствуют
Формат: WEBDLRip-AVC, MKV, H.264, MP3
Страна: Аргентина
Режиссер: Гонсало Кальзада / Gonzalo Calzada
Жанр: ужасы, мистика
Продолжительность: 01:54:22
Год выпуска: 2018
В ролях: Виктория Каррерас, Гастон Кокьярале, Агустин Дауде, София дель Туффо, Франциско Донован, Чучо Фернандес, Стефания Кёсль, Томас Лапан, Марта Лубос, Педро Мерло, Дезэри Глория Сальгуеро, Малена Санчес, Вандо Вильямиль.
Описание: Наталия — 19-летняя послушница, которая вынуждена вернуться домой, чтобы попрощаться с умирающим отцом. Но встретившись со своей сестрой и ее друзьями, она неожиданно решается отправиться вместе с ними в джунгли на поиски некоего мистического растения. Вот только вместо позитивного опыта им придется узнать, что такое Черные Мессы, странные беременности и жестокие смерти. А будущая монахиня столкнется с самим Дьяволом.



Видео: 1280x720 (16:9), 24fps, MPEG4 Video (H264) ~1 768 kbps avg, 0.080 bit/pixel
Аудио: 48 kHz, MPEG Layer 3, 2 ch, ~192.00 kbps avg
Доп. информация: 1 победа и 1 номинация:
Horrorant Film Festival 'Fright Nights' 2018




General
Unique ID : 249433238956093345246843007360254509422 (0xBBA7182ACD4304C4AB7AEF0D87BA816E)
Complete name :Luciferina.2018.mkv
Format : Matroska
Format version : Version 4 / Version 2
File size : 1.57 GiB
Duration : 1 h 54 min
Overall bit rate : 1 961 kb/s
Movie name : LUCIFERINA 2018
Encoded date : UTC 2018-11-16 13:19:21
Writing application : mkvmerge v9.6.0 ('Slave To Your Mind') 64bit
Writing library : libebml v1.3.4 + libmatroska v1.4.5
Attachments : poster.png

Video
ID : 1
Format : AVC
Format/Info : Advanced Video Codec
Format profile :
Format settings, CABAC : Yes
Format settings, RefFrames : 3 frames
Codec ID : V_MPEG4/ISO/AVC
Duration : 1 h 54 min
Bit rate : 1 768 kb/s
Width : 1 280 pixels
Height : 720 pixels
Display aspect ratio : 16:9
Frame rate mode : Constant
Frame rate : 24.000 FPS
Color space : YUV
Chroma subsampling : 4:2:0
Bit depth : 8 bits
Scan type : Progressive
Bits/(Pixel*Frame) : 0.080
Stream size : 1.41 GiB (90%)
Default : Yes
Forced : No

Audio
ID : 2
Format : MPEG Audio
Format version : Version 1
Format profile : Layer 3
Codec ID : A_MPEG/L3
Codec ID/Hint : MP3
Duration : 1 h 54 min
Bit rate mode : Constant
Bit rate : 192 kb/s
Channel(s) : 2 channels
Sampling rate : 48.0 kHz
Frame rate : 41.667 FPS (1152 SPF)
Compression mode : Lossy
Delay relative to video : -41 ms
Stream size : 157 MiB (10%)
Default : Yes
Forced : No


















   Похожие торренты   Торрент   Размер 
В этой теме нет новых непрочитанных сообщений. Дьяволица / Luciferina (Гонсало Кальзада) [2018, ужасы, детектив, WEBDLRip] VO

19 | 0

1.46 ГБ

В этой теме нет новых непрочитанных сообщений. Похоть / Lyst (Северин Эскеланд / Severin Eskeland) [2017, ужасы, мистика, триллер, WEBDLRip-AVC] VO / Мистика

5 | 0

1.41 ГБ

В этой теме нет новых непрочитанных сообщений. Тьма / The Dark (Джастин П. Ланж) [2018, ужасы, драма, HDRip-AVC] MVO / Мистика

14 | 0

1.46 ГБ

В этой теме нет новых непрочитанных сообщений. Суспирия / Suspiria (Лука Гуаданьино) [2018, ужасы, мистика, триллер, драма, детектив, BDRip-AVC] DUB / Мистика

20 | 0

1.45 ГБ

В этой теме нет новых непрочитанных сообщений. Карма / Karma (Ник Саймон) [2018, ужасы, WEBDLRip-AVC] MVO / Мистика

0 | 0

1.37 ГБ

В этой теме нет новых непрочитанных сообщений. Кампус / The Campus (Дж. Хортон) [2018, ужасы, WEBDLRip] MVO / Мистика

3 | 0

1.36 ГБ

В этой теме нет новых непрочитанных сообщений. Карма / Karma (Ник Саймон) [2018, ужасы, WEBDLRip] MVO / Мистика

20 | 1

1.37 ГБ




Вы не можете начинать темы
Вы не можете отвечать на сообщения
Вы не можете редактировать свои сообщения
Вы не можете удалять свои сообщения
Вы не можете добавлять вложения

Перейти:  
 Вход
ppkBB3cker v.2 © 2008-2014 @ PPK
[ Time : 0.020s | 15 Queries | GZIP : Off ]

cron