img image001 image001 image001 image001 image001 image001 image001 image001 image001 image001 image001 image001 image001 image001 image001

Planets Sun Sun Sun
Статистика раздачи
Автор: Снежана | Размер: 2.19 ГБ | Добавлен: 24 дек 2018
Раздают: 17    Качают: 2
Скачать торрент
Скачать торрент
Описание торрента

СообщениеДобавлено: 24 дек 2018 

Конец света / End of Days


Перевод: Профессиональный (многоголосый закадровый), субтитры: отсутствуют
Формат: HDRip-AVC, MKV, H.264, AC3
Страна: США
Режиссер: Питер Хайамс
Жанр: ужасы, фэнтези, боевик, триллер
Продолжительность: 02:02:17
Год выпуска: 1999
В ролях: Арнольд Шварценеггер, Гэбриел Бирн, Робин Танни, Кевин Поллак, Си Си Эйч Паундер, Мириам Маргулис, Род Стайгер, Джек Ширер, Майкл О’Хаган, Деррик О’Коннор

Описание: Ее рождения боялись веками. С начала эры в своих одиноких кельях отшельники переписывали слова страшного пророчества. В глубине времен звезды предсказали младенцу страшную судьбу: она должна стать невестой самого Дьявола. И в конце тысячелетия Сатана восстанет из ада, чтобы вступить с несчастной в страшный союз. Если это случится, на земле наступит царство Зла и человечество навсегда погрузится во тьму.
Ужасное пророчество, в которое боялись поверить, сбылось. Князь тьмы вырвался из заточения в поисках своей невесты. Время повернуло вспять, отсчитывая мгновения до рокового финала. Но предсказатели не учли одного — того, кто осмелился встать на пути у всесильного Люцифера, чтобы в одиночку остановить Апокалипсис…




Видео: 1024x432 (2.40:1), 23.976 fps, AVC MPEG4 (x264), , ~2100 kbps avg, 0.198 bit/pixel
Аудио: 48 kHz, AC3 Dolby Digital, 3/2 (L,C,R,l,r) + LFE ch, ~448 kbps
General
Unique ID : 43542650916084128420547835770447160209 (0x20C2027047351EF8D2F992F270D16391)
Complete name : C:\Users\123\Desktop\End.of.Days.1999.HDRip-AVC_[tfile.ru].mkv
Format : Matroska
Format version : Version 4 / Version 2
File size : 2.19 GiB
Duration : 2h 2mn
Overall bit rate mode : Constant
Overall bit rate : 2 548 Kbps
Movie name : End of Days (1999) - Release for HDCLUB
Encoded date : UTC 2010-07-08 19:35:28
Writing application : Lavf56.36.100
Writing library : Lavf56.36.100

Video
ID : 2
Format : AVC
Format/Info : Advanced Video Codec
Format profile :
Format settings, CABAC : Yes
Format settings, ReFrames : 2 frames
Format settings, GOP : M=1, N=25
Codec ID : V_MPEG4/ISO/AVC
Duration : 2h 2mn
Bit rate mode : Constant
Bit rate : 2 100 Kbps
Width : 1 024 pixels
Height : 432 pixels
Display aspect ratio : 2.40:1
Frame rate mode : Constant
Frame rate : 23.976 fps
Color space : YUV
Chroma subsampling : 4:2:0
Bit depth : 8 bits
Scan type : Progressive
Bits/(Pixel*Frame) : 0.198
Stream size : 1.76 GiB (80%)
Title : End of Days (1999) - Release for HDCLUB
Language : English
Default : Yes
Forced : No

Audio
ID : 1
Format : AC-3
Format/Info : Audio Coding 3
Mode extension : CM (complete main)
Format settings, Endianness : Big
Codec ID : A_AC3
Duration : 2h 2mn
Bit rate mode : Constant
Bit rate : 448 Kbps
Channel(s) : 6 channels
Channel positions : Front: L C R, Side: L R, LFE
Sampling rate : 48.0 KHz
Bit depth : 32 bits
Compression mode : Lossy
Stream size : 393 MiB (18%)
Title : многоголосный (С.Р.И.) [ac3 6ch 448 kbps]
Language : Russian
Default : Yes
Forced : No










   Похожие торренты   Торрент   Размер 
В этой теме нет новых непрочитанных сообщений. Козерог один / Capricorn One (Питер Хайамс) [1977, фантастика, боевик, триллер, HDRip-AVC] MVO

2 | 0

1.46 ГБ

В этой теме нет новых непрочитанных сообщений. Страшилы / The Frighteners (Питер Джексон) [1996, ужасы, триллер, фэнтези, комедия, BDRip-AVC] MVO+DVO+AVO / Мистика

13 | 0

2.23 ГБ

В этой теме нет новых непрочитанных сообщений. Тьма / The Dark (Джастин П. Ланж) [2018, ужасы, драма, HDRip-AVC] MVO / Мистика

4 | 2

1.46 ГБ

В этой теме нет новых непрочитанных сообщений. Конец света / End of Days (1999) HDRip от Portablius | P

6 | 0

749.67 МБ

В этой теме нет новых непрочитанных сообщений. Конец света / End of Days (1999) HDRip | D | Видео-Сервис

5 | 1

745.37 МБ

В этой теме нет новых непрочитанных сообщений. 30 дней ночи: Темные дни / 30 Days of Night: Dark Days (Бен Кетаи) [2010, ужасы, триллер, HDRip-AVC] MVO / Мистика

3 | 0

1.46 ГБ

В этой теме нет новых непрочитанных сообщений. Страшилы / The Frighteners (Питер Джексон ) [1996, ужасы, фэнтези, комедия, HDRip-AVC] MVO / Мистика

1 | 1

1.46 ГБ




Вы не можете начинать темы
Вы не можете отвечать на сообщения
Вы не можете редактировать свои сообщения
Вы не можете удалять свои сообщения
Вы не можете добавлять вложения

Перейти:  
 Вход
ppkBB3cker v.2 © 2008-2014 @ PPK
[ Time : 0.030s | 15 Queries | GZIP : Off ]

cron