img image001 image001 image001 image001 image001 image001 image001 image001 image001 image001 image001 image001 image001 image001 image001

Planets Sun Sun Sun
Статистика раздачи
Автор: Снежана | Размер: 46.39 ГБ | Добавлен: 03 янв 2019
Раздают: 18    Качают: 21
Скачать торрент
Скачать торрент
Описание торрента

СообщениеДобавлено: 03 янв 2019 

[img]http://img15.lostpic.net/2019/01/02/f54191e62148b1bb60f74324294de96a.png[/img] [img]http://img15.lostpic.net/2019/01/02/8f46e2e1a50abf0e7457053612b5162b.png[/img] [img]http://img15.lostpic.net/2019/01/02/8ee28fadc86229e575ae406d4b2cbf0c.png[/img] [img]http://img15.lostpic.net/2019/01/02/570ee24df343b11cd1a960aade53e317.png[/img]
[spoiler="Черепашки ниндзя / Teenage Mutant Ninja Turtles (1990) BDRip 1080p:"]
[img]http://img15.lostpic.net/2019/01/01/baa030e74e852312edf77cfc98c7dcbe.png[/img]
Информация о фильме
[b]Название[/b]: Черепашки ниндзя
[b]Оригинальное название[/b]: Teenage Mutant Ninja Turtles
[b]Год выхода[/b]: 1990
[b]Жанр[/b]: Фантастика, боевик, комедия
[b]Режиссер[/b]: Стив Баррон
[b]В ролях[/b]: Джудит Хоуг, Элиас Котеас, Рэймонд Серра, Микелан Систи, Майкл Терни, Джеймс Саито, Лейф Тилден, Луис Кантарини, Джэй Паттерсон, Джош Пэйс, Обата Тосиро, Китти Фитцгиббон, Дэвид Форман, Тоширо Обата, Джо Д`Онофрио, Марк Джеффри Миллер, Кенн Скотт, Уинстон Хемингуэй, Джо Инско, Кевин Истмэн, Рик Гомес, Роберт Дж. Максвелл, Ник Перниче, Кимани Рэй Смит, Скит Ульрих, Сэм Рокуэлл, Джон Уорд
[b]О фильме[/b]: Четыре черепашки и крыса в канализационных трубах Нью-Йорка вляпались в радиационные отходы, мутировали и превратились в человеческого роста разумных черепашек, а крыса, которая раньше жила у японского мастера ниндзя-цу, обучила их боевым искусствам.
Черепашки Леонардо, Рафаэль, Микеланджело и Донателло подружились с тележурналисткой и помогли остановить рост молодежной преступности.
[url=http://www.imdb.com/title/tt0100758/][img]http://live-rutor.org/parse/s.rutor.org/imdb/pic/0100758.gif[/img][/url]
[b]Страна[/b]: США, Гонконг
[b]Студия[/b]: New Line Cinema
[b]Продолжительность[/b]: 01:33:33
[b]Перевод[/b]: Профессиональный (многоголосый закадровый), ТО Немое кино
[b]Перевод[/b]: Авторский (одноголосый закадровый), Ю. Живов
[b]Перевод[/b]: Авторский (одноголосый закадровый), В. Дохалов
[b]Перевод[/b]: Авторский (одноголосый закадровый), М. Иванов
[b]Перевод[/b]: Авторский (одноголосый закадровый)
[b]Перевод[/b]: Авторский (одноголосый закадровый), М. Ошурков
[b]Субтитры[/b]: Русские, английские
Файл
[b]Качество[/b]: BDRip 1080p
[b]Формат[/b]: MKV
[b]Видео кодек[/b]: x264
[b]Аудио кодек[/b]: AC3
[b]Видео[/b]: MPEG4 Video (H264), 1920x1080, 23.976fps, 12.0 Mbps
[b]Аудио #01[/b]: Русский: Dolby AC3, 48000 Hz, 6ch, 384 kbps - Многоголосый, ТО Немое кино
[b]Аудио #02[/b]: Русский: Dolby AC3, 48000 Hz, 6ch, 384 kbps - Одноголосый, Ю. Живов
[b]Аудио #03[/b]: Русский: Dolby AC3, 48000 Hz, 2ch, 192 kbps - Одноголосый, В. Дохалов
[b]Аудио #04[/b]: Русский: Dolby AC3, 48000 Hz, 2ch, 192 kbps - Одноголосый, М. Иванов
[b]Аудио #05[/b]: Русский: Dolby AC3, 48000 Hz, 6ch, 384 kbps - Одноголосый
[b]Аудио #06[/b]: Русский: Dolby AC3, 48000 Hz, 2ch, 192 kbps - Одноголосый, М. Ошурков
[b]Аудио #07[/b]: Английский: Dolby AC3, 48000 Hz, 6ch, 384 kbps
[b]Формат субтитров[/b]: Softsub (SRT)
[url=http://sendfile.su/1465298][b]Сэмпл[/b][/url]
[spoiler="MediaInfo:"]General
Unique ID : 179892665319332261581235869096575061407 (0x8756112CE7220ED8B33BCEC295ED4D9F)
Complete name : D:Torrent2T.M.N.T.Collection.1990-2016.likko1990 Черепашки-ниндзя.mkv
Format : Matroska
Format version : Version 4
File size : 9.21 GiB
Duration : 1 h 33 min
Overall bit rate : 14.1 Mb/s
Movie name : 1990 Черепашки-ниндзя/likko
Encoded date : UTC 2018-11-17 19:09:21
Writing application : mkvmerge v8.3.0 ('Over the Horizon') 64bit
Writing library : libebml v1.3.1 + libmatroska v1.4.2
Cover : Yes
Attachments : cover.png
Video
ID : 1
Format : AVC
Format/Info : Advanced Video Codec
Format profile : High@L4.1
Format settings : CABAC / 4 Ref Frames
Format settings, CABAC : Yes
Format settings, ReFrames : 4 frames
Codec ID : V_MPEG4/ISO/AVC
Duration : 1 h 33 min
Bit rate : 12.0 Mb/s
Width : 1 920 pixels
Height : 1 080 pixels
Display aspect ratio : 16:9
Frame rate mode : Constant
Frame rate : 23.976 (24000/1001) FPS
Color space : YUV
Chroma subsampling : 4:2:0
Bit depth : 8 bits
Scan type : Progressive
Bits/(Pixel*Frame) : 0.241
Stream size : 7.83 GiB (85%)
Title : 1990 Черепашки-ниндзя
Writing library : x264 core 148 r2638 7599210
Encoding settings : cabac=1 / ref=4 / deblock=1:-1:-1 / analyse=0x3:0x133 / me=umh / subme=11 / psy=1 / psy_rd=1.00:0.15 / mixed_ref=1 / me_range=48 / chroma_me=1 / trellis=2 / 8x8dct=1 / cqm=0 / deadzone=21,11 / fast_pskip=0 / chroma_qp_offset=-3 / threads=18 / lookahead_threads=4 / sliced_threads=0 / nr=0 / decimate=1 / interlaced=0 / bluray_compat=0 / constrained_intra=0 / bframes=10 / b_pyramid=2 / b_adapt=2 / b_bias=0 / direct=3 / weightb=1 / open_gop=0 / weightp=2 / keyint=250 / keyint_min=23 / scenecut=40 / intra_refresh=0 / rc=2pass / mbtree=0 / bitrate=12000 / ratetol=1.0 / qcomp=0.60 / qpmin=0 / qpmax=69 / qpstep=4 / cplxblur=20.0 / qblur=0.5 / ip_ratio=1.40 / pb_ratio=1.30 / aq=2:1.00
Language : English
Default : Yes
Forced : No
Audio #1
ID : 2
Format : AC-3
Format/Info : Audio Coding 3
Commercial name : Dolby Digital
Codec ID : A_AC3
Duration : 1 h 33 min
Bit rate mode : Constant
Bit rate : 384 kb/s
Channel(s) : 6 channels
Channel layout : L R C LFE Ls Rs
Sampling rate : 48.0 kHz
Frame rate : 31.250 FPS (1536 SPF)
Bit depth : 16 bits
Compression mode : Lossy
Stream size : 257 MiB (3%)
Title : Многоголосный, ТО Немое кино
Language : Russian
Service kind : Complete Main
Default : Yes
Forced : No
Audio #2
ID : 3
Format : AC-3
Format/Info : Audio Coding 3
Commercial name : Dolby Digital
Codec ID : A_AC3
Duration : 1 h 33 min
Bit rate mode : Constant
Bit rate : 384 kb/s
Channel(s) : 6 channels
Channel layout : L R C LFE Ls Rs
Sampling rate : 48.0 kHz
Frame rate : 31.250 FPS (1536 SPF)
Bit depth : 16 bits
Compression mode : Lossy
Stream size : 257 MiB (3%)
Title : Одноголосый, Ю. Живов
Language : Russian
Service kind : Complete Main
Default : No
Forced : No
Audio #3
ID : 4
Format : AC-3
Format/Info : Audio Coding 3
Commercial name : Dolby Digital
Codec ID : A_AC3
Duration : 1 h 33 min
Bit rate mode : Constant
Bit rate : 192 kb/s
Channel(s) : 2 channels
Channel layout : L R
Sampling rate : 48.0 kHz
Frame rate : 31.250 FPS (1536 SPF)
Bit depth : 16 bits
Compression mode : Lossy
Stream size : 128 MiB (1%)
Title : Одноголосый, В. Дохалов
Language : Russian
Service kind : Complete Main
Default : No
Forced : No
Audio #4
ID : 5
Format : AC-3
Format/Info : Audio Coding 3
Commercial name : Dolby Digital
Codec ID : A_AC3
Duration : 1 h 33 min
Bit rate mode : Constant
Bit rate : 192 kb/s
Channel(s) : 2 channels
Channel layout : L R
Sampling rate : 48.0 kHz
Frame rate : 31.250 FPS (1536 SPF)
Bit depth : 16 bits
Compression mode : Lossy
Stream size : 128 MiB (1%)
Title : Одноголосый, М. Иванов
Language : Russian
Service kind : Complete Main
Default : No
Forced : No
Audio #5
ID : 6
Format : AC-3
Format/Info : Audio Coding 3
Commercial name : Dolby Digital
Codec ID : A_AC3
Duration : 1 h 33 min
Bit rate mode : Constant
Bit rate : 384 kb/s
Channel(s) : 6 channels
Channel layout : L R C LFE Ls Rs
Sampling rate : 48.0 kHz
Frame rate : 31.250 FPS (1536 SPF)
Bit depth : 16 bits
Compression mode : Lossy
Stream size : 257 MiB (3%)
Title : Одноголосый
Language : Russian
Service kind : Complete Main
Default : No
Forced : No
Audio #6
ID : 7
Format : AC-3
Format/Info : Audio Coding 3
Commercial name : Dolby Digital
Codec ID : A_AC3
Duration : 1 h 33 min
Bit rate mode : Constant
Bit rate : 192 kb/s
Channel(s) : 2 channels
Channel layout : L R
Sampling rate : 48.0 kHz
Frame rate : 31.250 FPS (1536 SPF)
Bit depth : 16 bits
Compression mode : Lossy
Stream size : 128 MiB (1%)
Title : Одноголосый, М. Ошурков
Language : Russian
Service kind : Complete Main
Default : No
Forced : No
Audio #7
ID : 8
Format : AC-3
Format/Info : Audio Coding 3
Commercial name : Dolby Digital
Codec ID : A_AC3
Duration : 1 h 33 min
Bit rate mode : Constant
Bit rate : 384 kb/s
Channel(s) : 6 channels
Channel layout : L R C LFE Ls Rs
Sampling rate : 48.0 kHz
Frame rate : 31.250 FPS (1536 SPF)
Bit depth : 16 bits
Compression mode : Lossy
Stream size : 257 MiB (3%)
Language : English
Service kind : Complete Main
Default : No
Forced : No
Text #1
ID : 9
Format : UTF-8
Codec ID : S_TEXT/UTF8
Codec ID/Info : UTF-8 Plain Text
Duration : 1 h 27 min
Bit rate : 86 b/s
Count of elements : 1149
Stream size : 55.6 KiB (0%)
Language : Russian
Default : No
Forced : No
Text #2
ID : 10
Format : UTF-8
Codec ID : S_TEXT/UTF8
Codec ID/Info : UTF-8 Plain Text
Duration : 1 h 32 min
Bit rate : 55 b/s
Count of elements : 1348
Stream size : 37.8 KiB (0%)
Language : English
Default : No
Forced : No
Menu
00:00:00.000 : :00:00:00.000000000
00:05:00.000 : :00:05:00.000000000
00:10:00.000 : :00:10:00.000000000
00:15:00.000 : :00:15:00.000000000
00:20:00.000 : :00:20:00.000000000
00:25:00.000 : :00:25:00.000000000
00:30:00.000 : :00:30:00.000000000
00:35:00.000 : :00:35:00.000000000
00:40:00.000 : :00:40:00.000000000
00:45:00.000 : :00:45:00.000000000
00:50:00.000 : :00:50:00.000000000
00:55:00.000 : :00:55:00.000000000
01:00:00.000 : :01:00:00.000000000
01:05:00.000 : :01:05:00.000000000
01:10:00.000 : :01:10:00.000000000
01:15:00.000 : :01:15:00.000000000
01:20:00.000 : :01:20:00.000000000
01:25:00.000 : :01:25:00.000000000
01:30:00.000 : :01:30:00.000000000[/spoiler]
[url=http://lostpic.net/image/n5VY][img]http://img15.lostpic.net/2019/01/01/b54827ef4f802888c9470747a6e7010a.th.png[/img][/url] [url=http://lostpic.net/image/n5Vq][img]http://img15.lostpic.net/2019/01/01/30096d58203924afd874f307404afea2.th.png[/img][/url] [url=http://lostpic.net/image/n5Ve][img]http://img15.lostpic.net/2019/01/01/822d253d4ad5d5f707d44e7b5016c252.th.png[/img][/url] [url=http://lostpic.net/image/n5Vp][img]http://img15.lostpic.net/2019/01/01/efe2979b80572bdf68ce1d1b7f9653ba.th.png[/img][/url]
[/spoiler][spoiler="Черепашки ниндзя 2 / Teenage Mutant Ninja Turtles II: The Secret Of The Ooze (1991) BDRip 1080p:"]
[img]http://img15.lostpic.net/2019/01/01/c8f786aab9f664bfad5852fa551fe2d2.png[/img]
Информация о фильме
[b]Название[/b]: Черепашки ниндзя 2
[b]Оригинальное название[/b]: Teenage Mutant Ninja Turtles II: The Secret Of The Ooze
[b]Год выхода[/b]: 1991
[b]Жанр[/b]: Фантастика, боевик, комедия
[b]Режиссер[/b]: Майкл Прессман
[b]В ролях[/b]: Майкл Джей Уайт, Пейдж Турко, Дэвид Уорнер, Эрни Рейес, Франсуа Чау, Суси Эссман, Майкл Прессмэн, Фрэнк Уэлкер, Майк Киммел
[b]О фильме[/b]: Леонардо! Рафаэль! Микеланджело! Донателло! Мудрый сэнсей Мастер Сплинтер превратил юных черепашек в одну непобедимую зеленую боевую машину! Настало время!
[url=http://www.imdb.com/title/tt0103060/][img]http://live-rutor.org/parse/s.rutor.org/imdb/pic/0103060.gif[/img][/url]
[b]Страна[/b]: США, Гонконг
[b]Студия[/b]: New Line Cinema
[b]Продолжительность[/b]: 01:28:32
[b]Перевод[/b]: Профессиональный (многоголосый закадровый), Ren-TV
[b]Перевод[/b]: Профессиональный (Двухголосый закадровый), Новый канал
[b]Перевод[/b]: Авторский (одноголосый закадровый), Ю. Живов
[b]Перевод[/b]: Авторский (одноголосый закадровый), В. Дохалов
[b]Перевод[/b]: Авторский (одноголосый закадровый), М. Ошурков
[b]Перевод[/b]: Авторский (одноголосый закадровый), П. Прямостанов
[b]Субтитры[/b]: Русские, английские
Файл
[b]Качество[/b]: BDRip 1080p
[b]Формат[/b]: MKV
[b]Видео кодек[/b]: x264
[b]Аудио кодек[/b]: AC3
[b]Видео[/b]: MPEG4 Video (H264), 1920x1040, 23.976fps, 12.0 Mbps
[b]Аудио #01[/b]: Русский: Dolby AC3, 48000 Hz, 2ch, 192 kbps - Многоголосый, Ren-TV
[b]Аудио #02[/b]: Русский: Dolby AC3, 48000 Hz, 6ch, 384 kbps - Двухголосый, Новый канал
[b]Аудио #03[/b]: Русский: Dolby AC3, 48000 Hz, 6ch, 384 kbps - Одноголосый, Ю. Живов
[b]Аудио #04[/b]: Русский: Dolby AC3, 48000 Hz, 2ch, 192 kbps - Одноголосый, В. Дохалов
[b]Аудио #05[/b]: Русский: Dolby AC3, 48000 Hz, 2ch, 192 kbps - Одноголосый, М. Ошурков
[b]Аудио #06[/b]: Русский: Dolby AC3, 48000 Hz, 6ch, 384 kbps - Одноголосый, П. Прямостанов
[b]Аудио #07[/b]: Английский: Dolby AC3, 48000 Hz, 6ch, 384 kbps
[b]Формат субтитров[/b]: Softsub (SRT)
[url=http://sendfile.su/1465299][b]Сэмпл[/b][/url]
[spoiler="MediaInfo:"]
General
Unique ID : 248112798963958815257414831746560912132 (0xBAA8C9730085A9BE94F63D0210156B04)
Complete name : D:Torrent2T.M.N.T.Collection.1990-2016.likko1991 Черепашки-ниндзя 2.mkv
Format : Matroska
Format version : Version 4
File size : 8.72 GiB
Duration : 1 h 28 min
Overall bit rate : 14.1 Mb/s
Movie name : 1991 Черепашки-ниндзя 2/likko
Encoded date : UTC 2018-11-17 20:32:42
Writing application : mkvmerge v8.3.0 ('Over the Horizon') 64bit
Writing library : libebml v1.3.1 + libmatroska v1.4.2
Cover : Yes
Attachments : cover.png
Video
ID : 1
Format : AVC
Format/Info : Advanced Video Codec
Format profile : High@L4.1
Format settings : CABAC / 4 Ref Frames
Format settings, CABAC : Yes
Format settings, ReFrames : 4 frames
Codec ID : V_MPEG4/ISO/AVC
Duration : 1 h 28 min
Bit rate : 12.0 Mb/s
Width : 1 920 pixels
Height : 1 040 pixels
Display aspect ratio : 1.85:1
Frame rate mode : Constant
Frame rate : 23.976 (24000/1001) FPS
Color space : YUV
Chroma subsampling : 4:2:0
Bit depth : 8 bits
Scan type : Progressive
Bits/(Pixel*Frame) : 0.251
Stream size : 7.41 GiB (85%)
Title : 1991 Черепашки-ниндзя 2
Writing library : x264 core 148 r2638 7599210
Encoding settings : cabac=1 / ref=4 / deblock=1:-1:-1 / analyse=0x3:0x133 / me=umh / subme=11 / psy=1 / psy_rd=1.00:0.15 / mixed_ref=1 / me_range=48 / chroma_me=1 / trellis=2 / 8x8dct=1 / cqm=0 / deadzone=21,11 / fast_pskip=0 / chroma_qp_offset=-3 / threads=18 / lookahead_threads=4 / sliced_threads=0 / nr=0 / decimate=1 / interlaced=0 / bluray_compat=0 / constrained_intra=0 / bframes=10 / b_pyramid=2 / b_adapt=2 / b_bias=0 / direct=3 / weightb=1 / open_gop=0 / weightp=2 / keyint=250 / keyint_min=23 / scenecut=40 / intra_refresh=0 / rc=2pass / mbtree=0 / bitrate=12000 / ratetol=1.0 / qcomp=0.60 / qpmin=0 / qpmax=69 / qpstep=4 / cplxblur=20.0 / qblur=0.5 / ip_ratio=1.40 / pb_ratio=1.30 / aq=2:1.00
Language : English
Default : Yes
Forced : No
Audio #1
ID : 2
Format : AC-3
Format/Info : Audio Coding 3
Commercial name : Dolby Digital
Codec ID : A_AC3
Duration : 1 h 28 min
Bit rate mode : Constant
Bit rate : 192 kb/s
Channel(s) : 2 channels
Channel layout : L R
Sampling rate : 48.0 kHz
Frame rate : 31.250 FPS (1536 SPF)
Bit depth : 16 bits
Compression mode : Lossy
Stream size : 122 MiB (1%)
Title : Многоголосый, Ren-TV
Language : Russian
Service kind : Complete Main
Default : Yes
Forced : No
Audio #2
ID : 3
Format : AC-3
Format/Info : Audio Coding 3
Commercial name : Dolby Digital
Codec ID : A_AC3
Duration : 1 h 28 min
Bit rate mode : Constant
Bit rate : 384 kb/s
Channel(s) : 6 channels
Channel layout : L R C LFE Ls Rs
Sampling rate : 48.0 kHz
Frame rate : 31.250 FPS (1536 SPF)
Bit depth : 16 bits
Compression mode : Lossy
Stream size : 243 MiB (3%)
Title : Двухголосый, Новый канал
Language : Russian
Service kind : Complete Main
Default : No
Forced : No
Audio #3
ID : 4
Format : AC-3
Format/Info : Audio Coding 3
Commercial name : Dolby Digital
Codec ID : A_AC3
Duration : 1 h 28 min
Bit rate mode : Constant
Bit rate : 384 kb/s
Channel(s) : 6 channels
Channel layout : L R C LFE Ls Rs
Sampling rate : 48.0 kHz
Frame rate : 31.250 FPS (1536 SPF)
Bit depth : 16 bits
Compression mode : Lossy
Stream size : 243 MiB (3%)
Title : Одноголосый, Ю. Живов
Language : Russian
Service kind : Complete Main
Default : No
Forced : No
Audio #4
ID : 5
Format : AC-3
Format/Info : Audio Coding 3
Commercial name : Dolby Digital
Codec ID : A_AC3
Duration : 1 h 28 min
Bit rate mode : Constant
Bit rate : 192 kb/s
Channel(s) : 2 channels
Channel layout : L R
Sampling rate : 48.0 kHz
Frame rate : 31.250 FPS (1536 SPF)
Bit depth : 16 bits
Compression mode : Lossy
Stream size : 122 MiB (1%)
Title : Одноголосый, В. Дохалов
Language : Russian
Service kind : Complete Main
Default : No
Forced : No
Audio #5
ID : 6
Format : AC-3
Format/Info : Audio Coding 3
Commercial name : Dolby Digital
Codec ID : A_AC3
Duration : 1 h 28 min
Bit rate mode : Constant
Bit rate : 192 kb/s
Channel(s) : 2 channels
Channel layout : L R
Sampling rate : 48.0 kHz
Frame rate : 31.250 FPS (1536 SPF)
Bit depth : 16 bits
Compression mode : Lossy
Stream size : 122 MiB (1%)
Title : Одноголосый, М. Ошурков
Language : Russian
Service kind : Complete Main
Default : No
Forced : No
Audio #6
ID : 7
Format : AC-3
Format/Info : Audio Coding 3
Commercial name : Dolby Digital
Codec ID : A_AC3
Duration : 1 h 28 min
Bit rate mode : Constant
Bit rate : 384 kb/s
Channel(s) : 6 channels
Channel layout : L R C LFE Ls Rs
Sampling rate : 48.0 kHz
Frame rate : 31.250 FPS (1536 SPF)
Bit depth : 16 bits
Compression mode : Lossy
Stream size : 243 MiB (3%)
Title : Одноголосый, П. Прямостанов
Language : Russian
Service kind : Complete Main
Default : No
Forced : No
Audio #7
ID : 8
Format : AC-3
Format/Info : Audio Coding 3
Commercial name : Dolby Digital
Codec ID : A_AC3
Duration : 1 h 28 min
Bit rate mode : Constant
Bit rate : 384 kb/s
Channel(s) : 6 channels
Channel layout : L R C LFE Ls Rs
Sampling rate : 48.0 kHz
Frame rate : 31.250 FPS (1536 SPF)
Bit depth : 16 bits
Compression mode : Lossy
Stream size : 243 MiB (3%)
Language : English
Service kind : Complete Main
Default : No
Forced : No
Text #1
ID : 9
Format : UTF-8
Codec ID : S_TEXT/UTF8
Codec ID/Info : UTF-8 Plain Text
Duration : 1 h 19 min
Bit rate : 92 b/s
Count of elements : 1057
Stream size : 54.0 KiB (0%)
Language : Russian
Default : No
Forced : No
Text #2
ID : 10
Format : UTF-8
Codec ID : S_TEXT/UTF8
Codec ID/Info : UTF-8 Plain Text
Duration : 1 h 27 min
Bit rate : 61 b/s
Count of elements : 1358
Stream size : 39.4 KiB (0%)
Language : English
Default : No
Forced : No
Menu
00:00:00.000 : en:Chapter 01
00:07:57.351 : en:Chapter 02
00:13:41.070 : en:Chapter 03
00:18:12.633 : en:Chapter 04
00:20:09.416 : en:Chapter 05
00:22:54.289 : en:Chapter 06
00:28:18.988 : en:Chapter 07
00:32:10.929 : en:Chapter 08
00:37:03.429 : en:Chapter 09
00:39:12.683 : en:Chapter 10
00:41:45.252 : en:Chapter 11
00:44:22.701 : en:Chapter 12
00:47:20.712 : en:Chapter 13
00:55:00.672 : en:Chapter 14
00:58:14.949 : en:Chapter 15
01:02:55.772 : en:Chapter 16
01:04:59.937 : en:Chapter 17
01:08:52.711 : en:Chapter 18
01:15:07.169 : en:Chapter 19
01:21:12.200 : en:Chapter 20
[/spoiler]
[url=http://lostpic.net/image/n5VB][img]http://img15.lostpic.net/2019/01/01/3982fb88b9bf0bf68a6cfd60a29bce41.th.png[/img][/url] [url=http://lostpic.net/image/n5Va][img]http://img15.lostpic.net/2019/01/01/211877d9dbb29909fa257bf920949d37.th.png[/img][/url] [url=http://lostpic.net/image/n5Vi][img]http://img15.lostpic.net/2019/01/01/3b74a10eeec9f225c0445700b574431b.th.png[/img][/url] [url=http://lostpic.net/image/n5Vz][img]http://img15.lostpic.net/2019/01/01/7c60e00df4cb3465e1cf05dcea959451.th.png[/img][/url]
[/spoiler][spoiler="Черепашки ниндзя 3 / Teenage Mutant Ninja Turtles III (1993) BDRip 1080p:"]
[img]http://img15.lostpic.net/2019/01/01/ca1beda97114fb185314c87b3838e604.png[/img]
Информация о фильме
[b]Название[/b]: Черепашки ниндзя 3
[b]Оригинальное название[/b]: Teenage Mutant Ninja Turtles III
[b]Год выхода[/b]: 1993
[b]Жанр[/b]: Фантастика, боевик, комедия
[b]Режиссер[/b]: Стюарт Гиллард
[b]В ролях[/b]: Элиас Котеас, Пейдж Турко, Стюарт Уилсон, Саб Симоно, Вивиан Ву, Марк Казо, Мэтт Хилл, Джим Рапоса, Дэвид Фрайзер, Генри Хаяши
[b]О фильме[/b]: Эйприл где-то на распродаже купила Сплинтеру старинный японский скипетр, и ещё всяких других подарков для своих друзей черепашек. Как выяснилось, этот скипетр — не просто обычный антиквариат, а прообраз машины времени. Но он работает только в том случае, когда вес путешественников во времени одинаков с обоих сторон.
Так случилось, что скипетр перенес Эйприл в феодальную Японию, в 1393-й год. Следом за ней отправились и черепашки, но вот беда, вместо того, чтобы попасть в храм, где по идее должен был находится скипетр, они оказываются посреди поля сражения. Во всей этой неразберихе теряется Микеланджело со скипетром. И теперь черепашкам нужно не только спасти Эйприл, но и вернуть скипетр. В нашем времени в этот момент тоже совсем не скучно.
[url=http://www.imdb.com/title/tt0108308/][img]http://live-rutor.org/parse/s.rutor.org/imdb/pic/0108308.gif[/img][/url]
[b]Страна[/b]: США, Гонконг
[b]Студия[/b]: Golden Harvest Company Ltd.
[b]Продолжительность[/b]: 01:35:46
[b]Перевод[/b]: Профессиональный (многоголосый закадровый), Ren-TV
[b]Перевод[/b]: Профессиональный (Двухголосый закадровый), Новый канал
[b]Перевод[/b]: Авторский (одноголосый закадровый), Ю. Живов
[b]Перевод[/b]: Авторский (одноголосый закадровый), А. Михалёв
[b]Перевод[/b]: Авторский (одноголосый закадровый), М. Ошурков
[b]Субтитры[/b]: Русские, английские
Файл
[b]Качество[/b]: BDRip 1080p
[b]Формат[/b]: MKV
[b]Видео кодек[/b]: x264
[b]Аудио кодек[/b]: AC3
[b]Видео[/b]: MPEG4 Video (H264), 1920x1040, 23.976fps, 12.0 Mbps
[b]Аудио #01[/b]: Русский: Dolby AC3, 48000 Hz, 2ch, 192 kbps - Многоголосый, Ren-TV
[b]Аудио #02[/b]: Русский: Dolby AC3, 48000 Hz, 6ch, 384 kbps - Двухголосый, Новый канал
[b]Аудио #03[/b]: Русский: Dolby AC3, 48000 Hz, 6ch, 384 kbps - Одноголосый, Ю. Живов
[b]Аудио #04[/b]: Русский: Dolby AC3, 48000 Hz, 2ch, 192 kbps - Одноголосый, А. Михалёв
[b]Аудио #05[/b]: Русский: Dolby AC3, 48000 Hz, 2ch, 192 kbps - Одноголосый, М. Ошурков
[b]Аудио #06[/b]: Английский: Dolby AC3, 48000 Hz, 6ch, 384 kbps
[b]Формат субтитров[/b]: Softsub (SRT)
[url=http://sendfile.su/1465301][b]Сэмпл[/b][/url]
[spoiler="MediaInfo:"]General
Unique ID : 179145427102970390323571894386427623299 (0x86C6277CA684D0418ECA3A42ACFAF783)
Complete name : D:Torrent2T.M.N.T.Collection.1990-2016.likko1993 Черепашки-ниндзя 3.mkv
Format : Matroska
Format version : Version 4
File size : 9.18 GiB
Duration : 1 h 35 min
Overall bit rate : 13.7 Mb/s
Movie name : 1993 Черепашки-ниндзя 3/likko
Encoded date : UTC 2018-11-17 20:44:14
Writing application : mkvmerge v8.3.0 ('Over the Horizon') 64bit
Writing library : libebml v1.3.1 + libmatroska v1.4.2
Cover : Yes
Attachments : cover.png
Video
ID : 1
Format : AVC
Format/Info : Advanced Video Codec
Format profile : High@L4.1
Format settings : CABAC / 4 Ref Frames
Format settings, CABAC : Yes
Format settings, ReFrames : 4 frames
Codec ID : V_MPEG4/ISO/AVC
Duration : 1 h 35 min
Bit rate : 12.0 Mb/s
Width : 1 920 pixels
Height : 1 080 pixels
Display aspect ratio : 16:9
Frame rate mode : Constant
Frame rate : 23.976 (24000/1001) FPS
Color space : YUV
Chroma subsampling : 4:2:0
Bit depth : 8 bits
Scan type : Progressive
Bits/(Pixel*Frame) : 0.241
Stream size : 8.02 GiB (87%)
Title : 1993 Черепашки-ниндзя 3
Writing library : x264 core 148 r2638 7599210
Encoding settings : cabac=1 / ref=4 / deblock=1:-1:-1 / analyse=0x3:0x133 / me=umh / subme=11 / psy=1 / psy_rd=1.00:0.15 / mixed_ref=1 / me_range=48 / chroma_me=1 / trellis=2 / 8x8dct=1 / cqm=0 / deadzone=21,11 / fast_pskip=0 / chroma_qp_offset=-3 / threads=18 / lookahead_threads=4 / sliced_threads=0 / nr=0 / decimate=1 / interlaced=0 / bluray_compat=0 / constrained_intra=0 / bframes=10 / b_pyramid=2 / b_adapt=2 / b_bias=0 / direct=3 / weightb=1 / open_gop=0 / weightp=2 / keyint=250 / keyint_min=23 / scenecut=40 / intra_refresh=0 / rc=2pass / mbtree=0 / bitrate=12000 / ratetol=1.0 / qcomp=0.60 / qpmin=0 / qpmax=69 / qpstep=4 / cplxblur=20.0 / qblur=0.5 / ip_ratio=1.40 / pb_ratio=1.30 / aq=2:1.00
Language : English
Default : Yes
Forced : No
Audio #1
ID : 2
Format : AC-3
Format/Info : Audio Coding 3
Commercial name : Dolby Digital
Codec ID : A_AC3
Duration : 1 h 35 min
Bit rate mode : Constant
Bit rate : 192 kb/s
Channel(s) : 2 channels
Channel layout : L R
Sampling rate : 48.0 kHz
Frame rate : 31.250 FPS (1536 SPF)
Bit depth : 16 bits
Compression mode : Lossy
Stream size : 132 MiB (1%)
Title : Многоголосый, Ren-TV
Language : Russian
Service kind : Complete Main
Default : Yes
Forced : No
Audio #2
ID : 3
Format : AC-3
Format/Info : Audio Coding 3
Commercial name : Dolby Digital
Codec ID : A_AC3
Duration : 1 h 35 min
Bit rate mode : Constant
Bit rate : 384 kb/s
Channel(s) : 6 channels
Channel layout : L R C LFE Ls Rs
Sampling rate : 48.0 kHz
Frame rate : 31.250 FPS (1536 SPF)
Bit depth : 16 bits
Compression mode : Lossy
Stream size : 263 MiB (3%)
Title : Двухголосый, Новый канал
Language : Russian
Service kind : Complete Main
Default : No
Forced : No
Audio #3
ID : 4
Format : AC-3
Format/Info : Audio Coding 3
Commercial name : Dolby Digital
Codec ID : A_AC3
Duration : 1 h 35 min
Bit rate mode : Constant
Bit rate : 384 kb/s
Channel(s) : 6 channels
Channel layout : L R C LFE Ls Rs
Sampling rate : 48.0 kHz
Frame rate : 31.250 FPS (1536 SPF)
Bit depth : 16 bits
Compression mode : Lossy
Stream size : 263 MiB (3%)
Title : Одноголосый, Ю. Живов
Language : Russian
Service kind : Complete Main
Default : No
Forced : No
Audio #4
ID : 5
Format : AC-3
Format/Info : Audio Coding 3
Commercial name : Dolby Digital
Codec ID : A_AC3
Duration : 1 h 35 min
Bit rate mode : Constant
Bit rate : 192 kb/s
Channel(s) : 2 channels
Channel layout : L R
Sampling rate : 48.0 kHz
Frame rate : 31.250 FPS (1536 SPF)
Bit depth : 16 bits
Compression mode : Lossy
Stream size : 132 MiB (1%)
Title : Одноголосый, А. Михалёв
Language : Russian
Service kind : Complete Main
Default : No
Forced : No
Audio #5
ID : 6
Format : AC-3
Format/Info : Audio Coding 3
Commercial name : Dolby Digital
Codec ID : A_AC3
Duration : 1 h 35 min
Bit rate mode : Constant
Bit rate : 192 kb/s
Channel(s) : 2 channels
Channel layout : L R
Sampling rate : 48.0 kHz
Frame rate : 31.250 FPS (1536 SPF)
Bit depth : 16 bits
Compression mode : Lossy
Stream size : 132 MiB (1%)
Title : Одноголосый, М. Ошурков
Language : Russian
Service kind : Complete Main
Default : No
Forced : No
Audio #6
ID : 7
Format : AC-3
Format/Info : Audio Coding 3
Commercial name : Dolby Digital
Codec ID : A_AC3
Duration : 1 h 35 min
Bit rate mode : Constant
Bit rate : 384 kb/s
Channel(s) : 6 channels
Channel layout : L R C LFE Ls Rs
Sampling rate : 48.0 kHz
Frame rate : 31.250 FPS (1536 SPF)
Bit depth : 16 bits
Compression mode : Lossy
Stream size : 263 MiB (3%)
Language : English
Service kind : Complete Main
Default : No
Forced : No
Text #1
ID : 8
Format : UTF-8
Codec ID : S_TEXT/UTF8
Codec ID/Info : UTF-8 Plain Text
Duration : 1 h 30 min
Bit rate : 74 b/s
Count of elements : 994
Stream size : 49.7 KiB (0%)
Language : Russian
Default : No
Forced : No
Text #2
ID : 9
Format : UTF-8
Codec ID : S_TEXT/UTF8
Codec ID/Info : UTF-8 Plain Text
Duration : 1 h 35 min
Bit rate : 56 b/s
Count of elements : 1429
Stream size : 39.4 KiB (0%)
Language : English
Default : No
Forced : No
Menu
00:00:00.000 : en:Chapter 01
00:06:49.075 : en:Chapter 02
00:13:43.072 : en:Chapter 03
00:17:19.788 : en:Chapter 04
00:23:40.669 : en:Chapter 05
00:29:05.201 : en:Chapter 06
00:35:24.956 : en:Chapter 07
00:40:20.751 : en:Chapter 08
00:48:57.059 : en:Chapter 09
00:50:21.059 : en:Chapter 10
00:54:42.612 : en:Chapter 11
00:57:59.851 : en:Chapter 12
00:59:03.248 : en:Chapter 13
01:01:47.537 : en:Chapter 14
01:05:47.276 : en:Chapter 15
01:10:38.192 : en:Chapter 16
01:13:54.304 : en:Chapter 17
01:16:40.971 : en:Chapter 18
01:23:02.769 : en:Chapter 19
01:30:32.093 : en:Chapter 20
[/spoiler]
[url=http://lostpic.net/image/n5Vf][img]http://img15.lostpic.net/2019/01/01/8f6c7b877abe3861014479e9765342a3.th.png[/img][/url] [url=http://lostpic.net/image/n5Vo][img]http://img15.lostpic.net/2019/01/01/0848f055a768948ee0a6c35050360b03.th.png[/img][/url] [url=http://lostpic.net/image/n5Vy][img]http://img15.lostpic.net/2019/01/01/4504d257625cade3823d8148a8aabfe8.th.png[/img][/url] [url=http://lostpic.net/image/n5V9][img]http://img15.lostpic.net/2019/01/01/3f13c01fb3e641e2f57c2b806b10368c.th.png[/img][/url]
[/spoiler][spoiler="Черепашки-ниндзя / Teenage Mutant Ninja Turtles (2014) BDRip 1080p:"]
[img]http://img15.lostpic.net/2019/01/01/ada7b163803624a70b8a4fa646b660cc.png[/img]
Информация о фильме
[b]Название[/b]: Черепашки-ниндзя
[b]Оригинальное название[/b]: Teenage Mutant Ninja Turtles
[b]Год выхода[/b]: 2014
[b]Жанр[/b]: Фантастика, боевик, комедия
[b]Режиссер[/b]: Джонатан Либесман
[b]В ролях[/b]: Меган Фокс, Уилл Арнетт, Уильям Фихтнер, Алан Ричсон, Ноэль Фишер, Пит Пложек, Джонни Ноксвил, Джереми Ховард, Дэнни Вудберн, Тони Шэлуб
[b]О фильме[/b]: Город нуждается в героях. Тьма окутала Нью-Йорк в виде Шреддера и его зловещего Клана Футов, у которого имеется железный контроль над всеми, от полицейских до политиков. Будущее выглядит мрачным, пока из канализации не поднимается и не раскрывает своё предназначение четвёрка отверженных братьев — Черепашки-ниндзя. Черепашки должны работать вместе с бесстрашным репортёром Эйприл и её саркастическим оператором Верном Фенвиком, чтобы спасти город и разгадать дьявольский план Шреддера.
[url=http://www.imdb.com/title/tt1291150/][img]http://live-rutor.org/parse/s.rutor.org/imdb/pic/1291150.gif[/img][/url]
[b]Страна[/b]: США
[b]Студия[/b]: Nickelodeon Movies, Paramount Pictures, Platinum Dunes
[b]Продолжительность[/b]: 01:41:18
[b]Перевод[/b]: Профессиональный (Полное дублирование)
[b]Перевод[/b]: Авторский (одноголосый закадровый), А. Гаврилов
Файл
[b]Качество[/b]: BDRip 1080p
[b]Формат[/b]: MKV
[b]Видео кодек[/b]: x264
[b]Аудио кодек[/b]: AC3
[b]Видео[/b]: MPEG4 Video (H264), 1920x800, 23.976fps, 11.0 Mbps
[b]Аудио #01[/b]: Русский: Dolby AC3, 48000 Hz, 6ch, 640 kbps - Дубляж
[b]Аудио #02[/b]: Русский: Dolby AC3, 48000 Hz, 6ch, 384 kbps - Одноголосый, А. Гаврилов
[b]Аудио #03[/b]: Английский: Dolby AC3, 48000 Hz, 6ch, 640 kbps
[b]Формат субтитров[/b]: Softsub (SRT)
[url=http://sendfile.su/1465302][b]Сэмпл[/b][/url]
[spoiler="MediaInfo:"]General
Unique ID : 180541354121099079947322046128203747319 (0x87D30000AB33D308ADF8B3E0A62BCFF7)
Complete name : D:Torrent2T.M.N.T.Collection.1990-2016.likko2014 Черепашки-ниндзя.mkv
Format : Matroska
Format version : Version 4
File size : 8.96 GiB
Duration : 1 h 41 min
Overall bit rate : 12.7 Mb/s
Movie name : 2014 Черепашки-ниндзя/likko
Encoded date : UTC 2018-11-21 15:32:05
Writing application : mkvmerge v8.3.0 ('Over the Horizon') 64bit
Writing library : libebml v1.3.1 + libmatroska v1.4.2
Cover : Yes
Attachments : cover.png
Video
ID : 1
Format : AVC
Format/Info : Advanced Video Codec
Format profile : High@L4.1
Format settings : CABAC / 5 Ref Frames
Format settings, CABAC : Yes
Format settings, ReFrames : 5 frames
Codec ID : V_MPEG4/ISO/AVC
Duration : 1 h 41 min
Bit rate : 11.0 Mb/s
Width : 1 920 pixels
Height : 800 pixels
Display aspect ratio : 2.40:1
Frame rate mode : Constant
Frame rate : 23.976 (24000/1001) FPS
Color space : YUV
Chroma subsampling : 4:2:0
Bit depth : 8 bits
Scan type : Progressive
Bits/(Pixel*Frame) : 0.299
Stream size : 7.78 GiB (87%)
Title : 2014 Черепашки-ниндзя
Writing library : x264 core 148 r2638 7599210
Encoding settings : cabac=1 / ref=5 / deblock=1:-1:-1 / analyse=0x3:0x133 / me=umh / subme=11 / psy=1 / psy_rd=1.00:0.15 / mixed_ref=1 / me_range=48 / chroma_me=1 / trellis=2 / 8x8dct=1 / cqm=0 / deadzone=21,11 / fast_pskip=0 / chroma_qp_offset=-3 / threads=18 / lookahead_threads=4 / sliced_threads=0 / nr=0 / decimate=1 / interlaced=0 / bluray_compat=0 / constrained_intra=0 / bframes=10 / b_pyramid=2 / b_adapt=2 / b_bias=0 / direct=3 / weightb=1 / open_gop=0 / weightp=2 / keyint=250 / keyint_min=23 / scenecut=40 / intra_refresh=0 / rc=2pass / mbtree=0 / bitrate=11000 / ratetol=1.0 / qcomp=0.60 / qpmin=0 / qpmax=69 / qpstep=4 / cplxblur=20.0 / qblur=0.5 / ip_ratio=1.40 / pb_ratio=1.30 / aq=2:1.00
Language : English
Default : Yes
Forced : No
Audio #1
ID : 2
Format : AC-3
Format/Info : Audio Coding 3
Commercial name : Dolby Digital
Codec ID : A_AC3
Duration : 1 h 41 min
Bit rate mode : Constant
Bit rate : 640 kb/s
Channel(s) : 6 channels
Channel layout : L R C LFE Ls Rs
Sampling rate : 48.0 kHz
Frame rate : 31.250 FPS (1536 SPF)
Bit depth : 16 bits
Compression mode : Lossy
Stream size : 464 MiB (5%)
Title : Дубляж
Language : Russian
Service kind : Complete Main
Default : Yes
Forced : No
Audio #2
ID : 3
Format : AC-3
Format/Info : Audio Coding 3
Commercial name : Dolby Digital
Codec ID : A_AC3
Duration : 1 h 41 min
Bit rate mode : Constant
Bit rate : 384 kb/s
Channel(s) : 6 channels
Channel layout : L R C LFE Ls Rs
Sampling rate : 48.0 kHz
Frame rate : 31.250 FPS (1536 SPF)
Bit depth : 16 bits
Compression mode : Lossy
Stream size : 278 MiB (3%)
Title : Одноголосый, А. Гаврилов
Language : Russian
Service kind : Complete Main
Default : No
Forced : No
Audio #3
ID : 4
Format : AC-3
Format/Info : Audio Coding 3
Commercial name : Dolby Digital
Codec ID : A_AC3
Duration : 1 h 41 min
Bit rate mode : Constant
Bit rate : 640 kb/s
Channel(s) : 6 channels
Channel layout : L R C LFE Ls Rs
Sampling rate : 48.0 kHz
Frame rate : 31.250 FPS (1536 SPF)
Bit depth : 16 bits
Compression mode : Lossy
Stream size : 464 MiB (5%)
Language : English
Service kind : Complete Main
Default : No
Forced : No
Text #1
ID : 5
Format : UTF-8
Codec ID : S_TEXT/UTF8
Codec ID/Info : UTF-8 Plain Text
Duration : 1 h 18 min
Bit rate : 1 b/s
Count of elements : 22
Stream size : 1 006 Bytes (0%)
Title : Форсированные
Language : Russian
Default : Yes
Forced : Yes
Text #2
ID : 6
Format : UTF-8
Codec ID : S_TEXT/UTF8
Codec ID/Info : UTF-8 Plain Text
Duration : 1 h 33 min
Bit rate : 93 b/s
Count of elements : 1136
Stream size : 64.0 KiB (0%)
Title : Полные
Language : Russian
Default : No
Forced : No
Text #3
ID : 7
Format : UTF-8
Codec ID : S_TEXT/UTF8
Codec ID/Info : UTF-8 Plain Text
Duration : 35 min 13 s
Bit rate : 0 b/s
Count of elements : 9
Stream size : 243 Bytes (0%)
Title : Force
Language : English
Default : No
Forced : No
Text #4
ID : 8
Format : UTF-8
Codec ID : S_TEXT/UTF8
Codec ID/Info : UTF-8 Plain Text
Duration : 1 h 33 min
Bit rate : 63 b/s
Count of elements : 1448
Stream size : 43.1 KiB (0%)
Title : Full
Language : English
Default : No
Forced : No
Text #5
ID : 9
Format : UTF-8
Codec ID : S_TEXT/UTF8
Codec ID/Info : UTF-8 Plain Text
Duration : 1 h 33 min
Bit rate : 72 b/s
Count of elements : 1693
Stream size : 49.8 KiB (0%)
Title : SDH
Language : English
Default : No
Forced : No
Text #6
ID : 10
Format : UTF-8
Codec ID : S_TEXT/UTF8
Codec ID/Info : UTF-8 Plain Text
Duration : 1 h 33 min
Bit rate : 98 b/s
Count of elements : 1717
Stream size : 67.4 KiB (0%)
Title : SDH-Colored
Language : English
Default : No
Forced : No
Menu
00:00:00.000 : en:Chapter 01
00:02:42.287 : en:Chapter 02
00:06:00.485 : en:Chapter 03
00:11:51.544 : en:Chapter 04
00:16:01.835 : en:Chapter 05
00:22:02.946 : en:Chapter 06
00:28:22.784 : en:Chapter 07
00:34:01.831 : en:Chapter 08
00:38:04.031 : en:Chapter 09
00:42:10.110 : en:Chapter 10
00:48:36.413 : en:Chapter 11
00:55:46.092 : en:Chapter 12
01:00:44.265 : en:Chapter 13
01:07:46.604 : en:Chapter 14
01:15:30.359 : en:Chapter 15
01:24:10.795 : en:Chapter 16
01:30:17.036 : en:Chapter 17
01:34:13.564 : en:Chapter 18
[/spoiler]
[url=http://lostpic.net/image/n5VN][img]http://img15.lostpic.net/2019/01/01/c65e86f0acdea4f0fa375693f5f674d8.th.png[/img][/url] [url=http://lostpic.net/image/n5VT][img]http://img15.lostpic.net/2019/01/01/92bd593c279e9a06b662ee175a171a16.th.png[/img][/url] [url=http://lostpic.net/image/n5VX][img]http://img15.lostpic.net/2019/01/01/9e74bd1fe706971097754d6212b58153.th.png[/img][/url] [url=http://lostpic.net/image/n5Vj][img]http://img15.lostpic.net/2019/01/01/3bb0dc56e2d492e1ecd32ebb78fa5b9c.th.png[/img][/url]
[/spoiler][spoiler="Черепашки-ниндзя 2 / Teenage Mutant Ninja Turtles: Out Of The Shadows (2016) BDRip 1080p:"]
[img]http://img15.lostpic.net/2019/01/01/cc83ca4ad3774e1c3db43c87e06806d8.png[/img]
Информация о фильме
[b]Название[/b]: Черепашки-ниндзя 2
[b]Оригинальное название[/b]: Teenage Mutant Ninja Turtles: Out Of The Shadows
[b]Год выхода[/b]: 2016
[b]Жанр[/b]: Фантастика, боевик, комедия
[b]Режиссер[/b]: Дэйв Грин
[b]В ролях[/b]: Меган Фокс, Алан Ричсон, Уилл Арнетт, Стефен Фаррелли, Алессандра Амброзио, Брэд Гэррет, Тайлер Перри
[b]О фильме[/b]: Доблестная четверка пионеров в костяных бронежилетах продолжает исподтишка охранять общественный порядок в Нью-Йорке. Между тем, главный уголовный авторитет города по кличке Шреддер сбегает из-под стражи. Вместе со своей бандой "Черная нога" он начинает творить всяческие непотребства: топчет муравейники, поливает цветы в парке китайским супер-клеем, распевает гимн Советского Союза на японском языке и организует вторжение инопланетного мозга-желе, собирающегося красиво разбомбить человечество северным сиянием. Черепашкам и их боевой подруге Эйприл О’Нил вновь предстоит спасать всех людей доброй воли, заручившись неожиданной помощью фаната "Пятницы 13-е" - мстителя в хоккейной маске Кейси Джонса.
[url=http://www.imdb.com/title/tt3949660/][img]http://live-rutor.org/parse/s.rutor.org/imdb/pic/3949660.gif[/img][/url]
[b]Страна[/b]: США
[b]Студия[/b]: Gama Entertainment Partners, Nickelodeon Movies, Paramount Pictures, Platinum Dunes
[b]Продолжительность[/b]: 01:52:07
[b]Перевод[/b]: Профессиональный (Полное дублирование)
[b]Перевод[/b]: Авторский (одноголосый закадровый), А. Гаврилов
[b]Перевод[/b]: Авторский (одноголосый закадровый), Ю. Живов
Файл
[b]Качество[/b]: BDRip 1080p
[b]Формат[/b]: MKV
[b]Видео кодек[/b]: x264
[b]Аудио кодек[/b]: AC3
[b]Видео[/b]: MPEG4 Video (H264), 1920x800, 23.976fps, 11.0 Mbps
[b]Аудио #01[/b]: Русский: Dolby AC3, 48000 Hz, 6ch, 640 kbps - Дубляж
[b]Аудио #02[/b]: Русский: Dolby AC3, 48000 Hz, 6ch, 448 kbps - Одноголосый, А. Гаврилов
[b]Аудио #03[/b]: Русский: Dolby AC3, 48000 Hz, 6ch, 448 kbps - Одноголосый, Ю. Живов
[b]Аудио #04[/b]: Английский: Dolby AC3, 48000 Hz, 6ch, 640 kbps
[b]Формат субтитров[/b]: Softsub (SRT)
[url=http://sendfile.su/1465303][b]Сэмпл[/b][/url]
[spoiler="MediaInfo:"]General
Unique ID : 247981773686202599707707932617073810853 (0xBA8F8D677E9B5899A43151E61124DDA5)
Complete name : D:Torrent2T.M.N.T.Collection.1990-2016.likko2016 Черепашки-ниндзя 2.mkv
Format : Matroska
Format version : Version 4
File size : 10.3 GiB
Duration : 1 h 52 min
Overall bit rate : 13.2 Mb/s
Movie name : 2016 Черепашки-ниндзя 2/likko
Encoded date : UTC 2018-11-21 15:37:53
Writing application : mkvmerge v8.3.0 ('Over the Horizon') 64bit
Writing library : libebml v1.3.1 + libmatroska v1.4.2
Cover : Yes
Attachments : cover.png
Video
ID : 1
Format : AVC
Format/Info : Advanced Video Codec
Format profile : High@L4.1
Format settings : CABAC / 5 Ref Frames
Format settings, CABAC : Yes
Format settings, ReFrames : 5 frames
Codec ID : V_MPEG4/ISO/AVC
Duration : 1 h 52 min
Bit rate : 11.0 Mb/s
Width : 1 920 pixels
Height : 800 pixels
Display aspect ratio : 2.40:1
Frame rate mode : Constant
Frame rate : 23.976 (24000/1001) FPS
Color space : YUV
Chroma subsampling : 4:2:0
Bit depth : 8 bits
Scan type : Progressive
Bits/(Pixel*Frame) : 0.299
Stream size : 8.61 GiB (83%)
Title : 2016 Черепашки-ниндзя 2
Writing library : x264 core 148 r2638 7599210
Encoding settings : cabac=1 / ref=5 / deblock=1:-1:-1 / analyse=0x3:0x133 / me=umh / subme=11 / psy=1 / psy_rd=1.00:0.15 / mixed_ref=1 / me_range=48 / chroma_me=1 / trellis=2 / 8x8dct=1 / cqm=0 / deadzone=21,11 / fast_pskip=0 / chroma_qp_offset=-3 / threads=18 / lookahead_threads=4 / sliced_threads=0 / nr=0 / decimate=1 / interlaced=0 / bluray_compat=0 / constrained_intra=0 / bframes=10 / b_pyramid=2 / b_adapt=2 / b_bias=0 / direct=3 / weightb=1 / open_gop=0 / weightp=2 / keyint=250 / keyint_min=23 / scenecut=40 / intra_refresh=0 / rc=2pass / mbtree=0 / bitrate=11000 / ratetol=1.0 / qcomp=0.60 / qpmin=0 / qpmax=69 / qpstep=4 / cplxblur=20.0 / qblur=0.5 / ip_ratio=1.40 / pb_ratio=1.30 / aq=2:1.00
Language : English
Default : Yes
Forced : No
Audio #1
ID : 2
Format : AC-3
Format/Info : Audio Coding 3
Commercial name : Dolby Digital
Codec ID : A_AC3
Duration : 1 h 52 min
Bit rate mode : Constant
Bit rate : 640 kb/s
Channel(s) : 6 channels
Channel layout : L R C LFE Ls Rs
Sampling rate : 48.0 kHz
Frame rate : 31.250 FPS (1536 SPF)
Bit depth : 16 bits
Compression mode : Lossy
Stream size : 513 MiB (5%)
Title : Дубляж
Language : Russian
Service kind : Complete Main
Default : Yes
Forced : No
Audio #2
ID : 3
Format : AC-3
Format/Info : Audio Coding 3
Commercial name : Dolby Digital
Codec ID : A_AC3
Duration : 1 h 52 min
Bit rate mode : Constant
Bit rate : 448 kb/s
Channel(s) : 6 channels
Channel layout : L R C LFE Ls Rs
Sampling rate : 48.0 kHz
Frame rate : 31.250 FPS (1536 SPF)
Bit depth : 16 bits
Compression mode : Lossy
Stream size : 359 MiB (3%)
Title : Одноголосый, А. Гаврилов
Language : Russian
Service kind : Complete Main
Default : No
Forced : No
Audio #3
ID : 4
Format : AC-3
Format/Info : Audio Coding 3
Commercial name : Dolby Digital
Codec ID : A_AC3
Duration : 1 h 52 min
Bit rate mode : Constant
Bit rate : 448 kb/s
Channel(s) : 6 channels
Channel layout : L R C LFE Ls Rs
Sampling rate : 48.0 kHz
Frame rate : 31.250 FPS (1536 SPF)
Bit depth : 16 bits
Compression mode : Lossy
Stream size : 359 MiB (3%)
Title : Одноголосый, Ю. Живов
Language : Russian
Service kind : Complete Main
Default : No
Forced : No
Audio #4
ID : 5
Format : AC-3
Format/Info : Audio Coding 3
Commercial name : Dolby Digital
Codec ID : A_AC3
Duration : 1 h 52 min
Bit rate mode : Constant
Bit rate : 640 kb/s
Channel(s) : 6 channels
Channel layout : L R C LFE Ls Rs
Sampling rate : 48.0 kHz
Frame rate : 31.250 FPS (1536 SPF)
Bit depth : 16 bits
Compression mode : Lossy
Stream size : 513 MiB (5%)
Language : English
Service kind : Complete Main
Default : No
Forced : No
Text #1
ID : 6
Format : UTF-8
Codec ID : S_TEXT/UTF8
Codec ID/Info : UTF-8 Plain Text
Duration : 1 h 41 min
Bit rate : 0 b/s
Count of elements : 11
Stream size : 371 Bytes (0%)
Title : Форсированные
Language : Russian
Default : Yes
Forced : Yes
Text #2
ID : 7
Format : UTF-8
Codec ID : S_TEXT/UTF8
Codec ID/Info : UTF-8 Plain Text
Duration : 1 h 43 min
Bit rate : 95 b/s
Count of elements : 1371
Stream size : 72.5 KiB (0%)
Title : Полные
Language : Russian
Default : No
Forced : No
Text #3
ID : 8
Format : UTF-8
Codec ID : S_TEXT/UTF8
Codec ID/Info : UTF-8 Plain Text
Duration : 1 h 42 min
Bit rate : 65 b/s
Count of elements : 1508
Stream size : 49.4 KiB (0%)
Title : Full
Language : English
Default : No
Forced : No
Text #4
ID : 9
Format : UTF-8
Codec ID : S_TEXT/UTF8
Codec ID/Info : UTF-8 Plain Text
Duration : 1 h 43 min
Bit rate : 74 b/s
Count of elements : 1879
Stream size : 56.7 KiB (0%)
Title : SDH
Language : English
Default : No
Forced : No
Menu
00:00:00.000 : en:Chapter 01
00:05:55.563 : en:Chapter 02
00:12:18.571 : en:Chapter 03
00:18:53.507 : en:Chapter 04
00:26:38.096 : en:Chapter 05
00:33:14.492 : en:Chapter 06
00:38:56.459 : en:Chapter 07
00:44:11.190 : en:Chapter 08
00:49:40.310 : en:Chapter 09
00:55:40.628 : en:Chapter 10
01:02:01.259 : en:Chapter 11
01:04:51.971 : en:Chapter 12
01:14:32.759 : en:Chapter 13
01:21:18.415 : en:Chapter 14
01:28:10.159 : en:Chapter 15
01:36:58.229 : en:Chapter 16
01:41:52.022 : en:Chapter 17
01:46:20.874 : en:Chapter 18
[/spoiler]
[url=http://lostpic.net/image/n5Vd][img]http://img15.lostpic.net/2019/01/01/017ca70e1a5598cc2da5b2f6f8de1bd2.th.png[/img][/url] [url=http://lostpic.net/image/n5VG][img]http://img15.lostpic.net/2019/01/01/4df6eac497e356300bf5fcaad453d5f9.th.png[/img][/url] [url=http://lostpic.net/image/n5VJ][img]http://img15.lostpic.net/2019/01/01/9635b595eb8034be7a8e0eb48365b9d7.th.png[/img][/url] [url=http://lostpic.net/image/n5VO][img]http://img15.lostpic.net/2019/01/01/981c35029cbb4bdc989aa3985f0866e4.th.png[/img][/url]
[/spoiler]

   Похожие торренты   Торрент   Размер 
В этой теме нет новых непрочитанных сообщений. Черепашки Ниндзя / Teenage Mutant Ninja Turtles (1990) BDRemux 1080p | P, L, A

4 | 0

24.51 ГБ

В этой теме нет новых непрочитанных сообщений. Черепашки Ниндзя / Teenage Mutant Ninja Turtles (1990) DVDRip-AVC | P, L | Fullscreen

0 | 0

2.32 ГБ

В этой теме нет новых непрочитанных сообщений. Черепашки-ниндзя 2 / Teenage Mutant Ninja Turtles: Out of the Shadows (2016) BDRip 720p от k.e.n & MegaPeer | D, A

12 | 5

5.23 ГБ

В этой теме нет новых непрочитанных сообщений. Черепашки-ниндзя 2 / Teenage Mutant Ninja Turtles: Out of the Shadows (2016) BDRip-HEVC 1080p от HEVC-CLUB | D

0 | 0

7.97 ГБ

В этой теме нет новых непрочитанных сообщений. Черепашки-ниндзя 2 / Teenage Mutant Ninja Turtles: Out of the Shadows (2016) UHD Blu-ray 2160p | 4K | HDR | D, A

12 | 14

64.44 ГБ

В этой теме нет новых непрочитанных сообщений. Черепашки-ниндзя / Teenage Mutant Ninja Turtles (2014) BDRip-HEVC 1080p от HEVC-CLUB | D

10 | 0

6.68 ГБ

В этой теме нет новых непрочитанных сообщений. Черепашки ниндзя / Teenage Mutant Ninja Turtles: The Video Game (2007) PC | RePack от Yaroslav98

274 | 7

977.33 МБ




Вы не можете начинать темы
Вы не можете отвечать на сообщения
Вы не можете редактировать свои сообщения
Вы не можете удалять свои сообщения
Вы не можете добавлять вложения

Перейти:  
Контактная информация: rstracker[пёсик]yandex.ru
 Вход
ppkBB3cker v.2 © 2008-2014 @ PPK
[ Time : 0.034s | 18 Queries | GZIP : Off ]

cron