img image001 image001 image001 image001 image001 image001 image001 image001 image001 image001 image001 image001 image001 image001 image001

Planets Sun Sun Sun

COVID-19 - Последняя информация о коронавирусе на сайте Минздрава


Статистика раздачи
Автор: Снежана | Размер: 24.09 ГБ | Добавлен: 04 янв 2019
Раздают: 6    Качают: 2
Скачать торрент
Скачать торрент
Описание торрента

СообщениеДобавлено: 04 янв 2019 

Информация о фильме
Название: Зубастики
Оригинальное название: Critters
Год выхода: 1986
Жанр: ужасы, фантастика, комедия
Режиссер: Стивен Херек
В ролях: Ди Уоллес-Стоун, Билли Грин Буш, Скотт Граймз, Надин Ван дер Велде, Дон Кит Оппер, Билли Зейн, Итэн Филлипс, Терренс Манн, Джереми Лоуренс, Лин Шэй, Майкл Ли Годжин, Арт Франкель, Дуглас Кот, Монтроуз Хагинс, Роджер Хэмптон, Чак Линдсли, Дэвид Стенстром, Аделе Малис-Мори, Кори Бёртон
О фильме:
Они не вышли ростом, но по свирепости с ними не сравнится ни одно земное существо — это Зубастики! Мохнатые безжалостные твари с ужасающей пастью прибыли из космоса, чтобы уничтожить цивилизацию людей.
И начали они с обычной сельской фермы в Канзасе, где сжирают всё, что попадается им на зуб (в том числе и людей). Хорошо, что в космосе есть ещё и отважные герои, которые приходят на помощь перепуганным местным жителям. Только объединенные усилия и хитроумная стратегия помогут победить прожорливых инопланетных зверушек.

Страна: США
Продолжительность: 01:25:44
Перевод 1: Профессиональный (двухголосый закадровый) ИНИС (AC3, 2 ch, 192 Кбит/с)
Перевод 2: Авторский (одноголосый закадровый) Андрей Гаврилов (AC3, 6 ch, 448 Кбит/с)
Перевод 3: Авторский (одноголосый закадровый) Сергей Кузнецов (AC3, 6 ch, 448 Кбит/с)
Оригинальная аудиодорожка: английская
Файл
Качество: BDRemux 1080p
Видео: MPEG-4 AVC, 35000 Кбит/c, 1920x1080
Звук: Русский (AC3, 6 ch, 448 Кбит/с), (AC3, 2 ch, 192 Кбит/с), английский (DTS-HD MA, 6 ch, 3458 Кбит/с), (DTS-HD MA, 2 ch, 2012 Кбит/с)
Субтитры: русские, английские

Video
ID : 1
Format : AVC
Format/Info : Advanced Video Codec
Format profile : High@L4.1
Format settings : CABAC / 4 Ref Frames
Format settings, CABAC : Yes
Format settings, RefFrames : 4 frames
Codec ID : V_MPEG4/ISO/AVC
Duration : 1 h 25 min
Bit rate mode : Constant
Bit rate : 35.0 Mb/s
Width : 1 920 pixels
Height : 1 080 pixels
Display aspect ratio : 16:9
Frame rate mode : Constant
Frame rate : 23.976 (24000/1001) FPS
Color space : YUV
Chroma subsampling : 4:2:0
Bit depth : 8 bits
Scan type : Progressive
Bits/(Pixel*Frame) : 0.704
Stream size : 20.0 GiB (83%)
Default : Yes
Forced : No
Audio #1
ID : 2
Format : AC-3
Format/Info : Audio Coding 3
Commercial name : Dolby Digital
Codec ID : A_AC3
Duration : 1 h 25 min
Bit rate mode : Constant
Bit rate : 448 kb/s
Channel(s) : 6 channels
Channel layout : L R C LFE Ls Rs
Sampling rate : 48.0 kHz
Frame rate : 31.250 FPS (1536 SPF)
Bit depth : 16 bits
Compression mode : Lossy
Stream size : 274 MiB (1%)
Title : ИНИС
Language : Russian
Service kind : Complete Main
Default : Yes
Forced : Yes
Audio #2
ID : 3
Format : AC-3
Format/Info : Audio Coding 3
Commercial name : Dolby Digital
Codec ID : A_AC3
Duration : 1 h 25 min
Bit rate mode : Constant
Bit rate : 192 kb/s
Channel(s) : 2 channels
Channel layout : L R
Sampling rate : 48.0 kHz
Frame rate : 31.250 FPS (1536 SPF)
Bit depth : 16 bits
Compression mode : Lossy
Stream size : 118 MiB (0%)
Title : СВ-Дубль
Language : Russian
Service kind : Complete Main
Default : No
Forced : No
Audio #3
ID : 4
Format : AC-3
Format/Info : Audio Coding 3
Commercial name : Dolby Digital
Codec ID : A_AC3
Duration : 1 h 25 min
Bit rate mode : Constant
Bit rate : 448 kb/s
Channel(s) : 6 channels
Channel layout : L R C LFE Ls Rs
Sampling rate : 48.0 kHz
Frame rate : 31.250 FPS (1536 SPF)
Bit depth : 16 bits
Compression mode : Lossy
Stream size : 274 MiB (1%)
Title : Андрей Гаврилов
Language : Russian
Service kind : Complete Main
Default : No
Forced : No
Audio #4
ID : 5
Format : AC-3
Format/Info : Audio Coding 3
Commercial name : Dolby Digital
Codec ID : A_AC3
Duration : 1 h 25 min
Bit rate mode : Constant
Bit rate : 192 kb/s
Channel(s) : 2 channels
Channel layout : L R
Sampling rate : 48.0 kHz
Frame rate : 31.250 FPS (1536 SPF)
Bit depth : 16 bits
Compression mode : Lossy
Stream size : 118 MiB (0%)
Title : Сергей Кузнецов
Language : Russian
Service kind : Complete Main
Default : No
Forced : No
Audio #5
ID : 6
Format : DTS XLL
Format/Info : Digital Theater Systems
Commercial name : DTS-HD Master Audio
Codec ID : A_DTS
Duration : 1 h 25 min
Bit rate mode : Variable
Bit rate : 3 458 kb/s
Channel(s) : 6 channels
Channel layout : C L R Ls Rs LFE
Sampling rate : 48.0 kHz
Frame rate : 93.750 FPS (512 SPF)
Bit depth : 24 bits
Compression mode : Lossless
Stream size : 2.07 GiB (9%)
Title : English 5.1
Language : English
Default : No
Forced : No
Audio #6
ID : 7
Format : DTS XLL
Format/Info : Digital Theater Systems
Commercial name : DTS-HD Master Audio
Codec ID : A_DTS
Duration : 1 h 25 min
Bit rate mode : Variable
Bit rate : 2 012 kb/s
Channel(s) : 2 channels
Channel layout : L R
Sampling rate : 48.0 kHz
Frame rate : 93.750 FPS (512 SPF)
Bit depth : 24 bits
Compression mode : Lossless
Stream size : 1.20 GiB (5%)
Title : English Stereo
Language : English
Default : No
Forced : No
Text #1
ID : 8
Format : UTF-8
Codec ID : S_TEXT/UTF8
Codec ID/Info : UTF-8 Plain Text
Duration : 1 h 20 min
Bit rate : 42 b/s
Count of elements : 579
Stream size : 24.8 KiB (0%)
Language : Russian
Default : No
Forced : No
Text #2
ID : 9
Format : UTF-8
Codec ID : S_TEXT/UTF8
Codec ID/Info : UTF-8 Plain Text
Duration : 1 h 24 min
Bit rate : 36 b/s
Count of elements : 848
Stream size : 22.4 KiB (0%)
Language : English
Default : No
Forced : No

   Похожие торренты   Торрент   Размер 
В этой теме нет новых непрочитанных сообщений. Зубастики / Critters (1986) WEBRip 1080p | P2, A

3 | 2

7.04 ГБ

В этой теме нет новых непрочитанных сообщений. Зубастики / Critters (1986) WEBRip 720p | P2, A

7 | 0

3.37 ГБ

В этой теме нет новых непрочитанных сообщений. Зубастики / Critters (1986) WEBRip-AVC от ExKinoRay | P

15 | 1

746.3 МБ

В этой теме нет новых непрочитанных сообщений. Зубастики атакуют! / Зубастики нападают! / Critters Attack! (Бобби Миллер) [2019, фантастика, комедия, ужасы, HDRip] VO

1 | 0

1.45 ГБ

В этой теме нет новых непрочитанных сообщений. Зубастики атакуют! / Зубастики нападают! / Critters Attack! (Бобби Миллер) [2019, фантастика, комедия, ужасы, HDRip-AVC] VO

2 | 0

1.46 ГБ

В этой теме нет новых непрочитанных сообщений. Зубастики 2: Основное блюдо / Critters 2 (1988) WEBRip 1080p | P2, A

7 | 0

8.64 ГБ

В этой теме нет новых непрочитанных сообщений. Зубастики 4 / Critters 4: They're Invading Your Space (1992) WEBRip 1080p от Freak Chaos | P2, A

8 | 5

4.13 ГБ




Вы не можете начинать темы
Вы не можете отвечать на сообщения
Вы не можете редактировать свои сообщения
Вы не можете удалять свои сообщения
Вы не можете добавлять вложения

Перейти:  
Контактная информация: rstracker[пёсик]yandex.ru
 Вход
ppkBB3cker v.2 © 2008-2014 @ PPK
[ Time : 0.030s | 17 Queries | GZIP : Off ]

cron