img image001 image001 image001 image001 image001 image001 image001 image001 image001 image001 image001 image001 image001 image001 image001

Planets Sun Sun Sun
Статистика раздачи
Автор: Снежана | Размер: 1.86 ГБ | Добавлен: 07 янв 2019
Раздают: 7    Качают: 3
Скачать торрент
Скачать торрент
Описание торрента

СообщениеДобавлено: 07 янв 2019 

Бельканто / Bel Canto


Перевод: Профессиональный (полное дублирование) iTunes
Cубтитры: Русские (форс.), aнглийские (SDH)
Формат: BDRip-AVC, MKV, H.264, AC3
Страна: США
Режиссер: Пол Вайц
Жанр: Tриллер, драма, мелодрама, музыка
Продолжительность: 01:40:56
Год выпуска: 2018

В ролях: Джулианна Мур, Кэн Ватанабэ, Себастьян Кох, Теноч Уэрта, Рё Касэ, Мария Мерседес Корой, Кристофер Ламберт, Торбьорн Харр, Эльза Зильберштейн, Олек Крупа

Описание: Оперная дива Роксана Косс приезжает в одну из стран Южной Америки, чтобы выступить на приеме по случаю дня рождения японского магната. Гости наслаждались великолепным сопрано Роксаны, когда в дом ворвались боевики во главе с генералом Беньямином. В обмен на 490 жизней они требовали освобождения заключенных повстанцев. Месяц заложники и террористы проведут в оккупированном особняке. Чтобы выжить, им необходимо попытаться понять друг друга…


Видео: 1024x428 (2.40:1), 23,976 fps, AVC (x264) ~1807 kbps avg, 0.172 bit/pixel
Аудио 1#: Русский: 48 kHz, AC3 Dolby Digital, 3/2 (L,C,R,l,r) + LFE ch, ~384 kbps (Дублированный)
Аудио 2#: Английский: 48 kHz, AC3 Dolby Digital, 3/2 (L,C,R,l,r) + LFE ch, ~448 kbps (Оригинал)


Общее
Уникальный идентификатор : 66204554544384928334872578201761843598 (0x31CE888D3E00A8346042A1D0C33B898E)
Полное имя : F:\OlLanDGroup\Bel.Canto.2016.BDRip(AVC).OlLanDGroup.mkv
Формат : Matroska
Версия формата : Version 4 / Version 2
Размер файла : 1,86 Гбайт
Продолжительность : 1 ч. 40 м.
Общий поток : 2638 Кбит/сек
Название фильма : Bel.Canto.2016 #TorpedoUK#
Дата кодирования : UTC 2018-12-22 16:59:48
Программа кодирования : mkvmerge v29.0.0 ('Like It Or Not') 64-bit
Библиотека кодирования : libebml v1.3.6 + libmatroska v1.4.9

Видео
Идентификатор : 1
Формат : AVC
Формат/Информация : Advanced Video Codec
Профиль формата :
Параметр CABAC формата : Да
Параметр ReFrames формата : 10 кадров
Идентификатор кодека : V_MPEG4/ISO/AVC
Продолжительность : 1 ч. 40 м.
Битрейт : 1807 Кбит/сек
Ширина : 1024 пикселя
Высота : 428 пикселей
Соотношение сторон : 2,40:1
Режим частоты кадров : Постоянный
Частота кадров : 23,976 (24000/1001) кадра/сек
Цветовое пространство : YUV
Субдискретизация насыщенности : 4:2:0
Битовая глубина : 8 бит
Тип развёртки : Прогрессивная
Бит/(Пиксели*Кадры) : 0.172
Размер потока : 1,27 Гбайт (68%)
Библиотека кодирования : x264 core 146 r2538 121396c
Настройки программы : cabac=1 / ref=10 / deblock=1:-2:-3 / analyse=0x3:0x113 / me=umh / subme=11 / psy=1 / psy_rd=0.95:0.07 / mixed_ref=1 / me_range=48 / chroma_me=1 / trellis=2 / 8x8dct=1 / cqm=0 / deadzone=21,11 / fast_pskip=1 / chroma_qp_offset=-3 / threads=6 / lookahead_threads=1 / sliced_threads=0 / nr=0 / decimate=1 / interlaced=0 / bluray_compat=0 / constrained_intra=0 / bframes=11 / b_pyramid=2 / b_adapt=2 / b_bias=0 / direct=3 / weightb=1 / open_gop=0 / weightp=2 / keyint=240 / keyint_min=23 / scenecut=40 / intra_refresh=0 / rc_lookahead=40 / rc=2pass / mbtree=0 / bitrate=1807 / ratetol=1.0 / qcomp=0.60 / qpmin=0 / qpmax=69 / qpstep=4 / cplxblur=20.0 / qblur=0.5 / vbv_maxrate=50000 / vbv_bufsize=62500 / nal_hrd=none / filler=0 / ip_ratio=1.40 / pb_ratio=1.30 / aq=1:1.00
Язык : English
Default : Да
Forced : Нет

Аудио #1
Идентификатор : 2
Формат : AC-3
Формат/Информация : Audio Coding 3
Расширение режима : CM (complete main)
Параметр Endianness формата : Big
Идентификатор кодека : A_AC3
Продолжительность : 1 ч. 40 м.
Вид битрейта : Постоянный
Битрейт : 384 Кбит/сек
Каналы : 6 каналов
Расположение каналов : Front: L C R, Side: L R, LFE
Частота : 48,0 КГц
Частота кадров : 31,250 кадров/сек (1536 spf)
Битовая глубина : 16 бит
Метод сжатия : С потерями
Размер потока : 277 Мбайт (15%)
Заголовок : DUB [iTunes]
Язык : Russian
Default : Да
Forced : Нет

Аудио #2
Идентификатор : 3
Формат : AC-3
Формат/Информация : Audio Coding 3
Расширение режима : CM (complete main)
Параметр Endianness формата : Big
Идентификатор кодека : A_AC3
Продолжительность : 1 ч. 40 м.
Вид битрейта : Постоянный
Битрейт : 448 Кбит/сек
Каналы : 6 каналов
Расположение каналов : Front: L C R, Side: L R, LFE
Частота : 48,0 КГц
Частота кадров : 31,250 кадров/сек (1536 spf)
Битовая глубина : 16 бит
Метод сжатия : С потерями
Размер потока : 323 Мбайт (17%)
Заголовок : [Original]
Язык : English
Default : Нет
Forced : Нет

Текст #1
Идентификатор : 4
Формат : UTF-8
Идентификатор кодека : S_TEXT/UTF8
Идентификатор кодека/Информация : UTF-8 Plain Text
Продолжительность : 1 ч. 35 м.
Битрейт : 26 бит/сек
Count of elements : 469
Размер потока : 18,9 Кбайт (0%)
Заголовок : Forced
Язык : Russian
Default : Да
Forced : Нет

Текст #2
Идентификатор : 5
Формат : UTF-8
Идентификатор кодека : S_TEXT/UTF8
Идентификатор кодека/Информация : UTF-8 Plain Text
Продолжительность : 1 ч. 35 м.
Битрейт : 32 бит/сек
Count of elements : 1112
Размер потока : 23,1 Кбайт (0%)
Заголовок : SDH
Язык : English
Default : Нет
Forced : Нет






   Похожие торренты   Торрент   Размер 
В этой теме нет новых непрочитанных сообщений. Бельканто / Bel Canto (Пол Вайц) [2018, триллер, драма, мелодрама, музыка, WEBRip] DUB

21 | 2

1.44 ГБ

В этой теме нет новых непрочитанных сообщений. Дикая Роза / Wild Rose (Том Харпер) [2018, музыка, драма, BDRip-AVC] MVO / Драмы

6 | 0

1.71 ГБ

В этой теме нет новых непрочитанных сообщений. Рождество на двоих / Last Christmas (Пол Фиг) [2019, драма, комедия, мелодрама, WEBRip] DUB

316 | 3

1.46 ГБ

В этой теме нет новых непрочитанных сообщений. Звезда родилась / A Star Is Born (Брэдли Купер) [2018, драма, мелодрама, музыка, BDRip] DUB / Драмы

24 | 3

2.92 ГБ

В этой теме нет новых непрочитанных сообщений. Навсегда моя девушка / Forever My Girl (Бетани Эштон) [2018, драма, мелодрама, музыка, BDRip] MVO / Драмы

11 | 2

747.31 МБ

В этой теме нет новых непрочитанных сообщений. Навсегда моя девушка / Forever My Girl (Бетани Эштон) [2018, драма, мелодрама, музыка, BDRip] MVO / Драмы

19 | 1

1.46 ГБ

В этой теме нет новых непрочитанных сообщений. Образ идеального Рождества / Picture a Perfect Christmas (Пол Зиллер) [2019, драма, мелодрама, HDTVRip] MVO / Драмы

5 | 0

1.46 ГБ




Вы не можете начинать темы
Вы не можете отвечать на сообщения
Вы не можете редактировать свои сообщения
Вы не можете удалять свои сообщения
Вы не можете добавлять вложения

Перейти:  
cron
 Вход
ppkBB3cker v.2 © 2008-2014 @ PPK
[ Time : 0.040s | 17 Queries | GZIP : Off ]

cron