img image001 image001 image001 image001 image001 image001 image001 image001 image001 image001 image001 image001 image001 image001 image001

Planets Sun Sun Sun
Статистика раздачи
Автор: Снежана | Размер: 3.67 ГБ | Добавлен: 07 янв 2019
Раздают: 22    Качают: 6
Скачать торрент
Скачать торрент
Описание торрента

СообщениеДобавлено: 07 янв 2019 

Убить Билла: Часть 2 / Kill Bill: Vol. 2


Перевод: Авторский (одноголосый) М.Яроцкий, субтитры: отсутствуют
Формат: BDRip-AVC, MKV, H.264, AC3
Страна: США
Режиссер: Квентин Тарантино
Жанр: боевик, триллер, криминал
Продолжительность: 02:16:57
Год выпуска: 2004

В ролях: Ума Турман, Дэвид Кэрредин, Люси Лью, Вивика А. Фокс, Джа Хуи Лью, Майкл Мэдсен, Дэрил Ханна, Майкл Паркс, Бо Свенсон, Дженни Эппер

Описание: Убив двух человек из банды, Невеста лишь наполовину приблизилась к цели. Теперь на очереди Бад и Элли Драйвер. Еще два опасных шага перед последней схваткой, в которой она должна убить Билла.



Видео: 1200x500 (2,40:1), 23,976 fps, High@L4 MPEG4 AVC (x264), ~2939 kbps avg, 0.204 bit/pixel
Аудио: 48 kHz, AC3 Dolby Digital, 3/2 (L,C,R) + L R, LFE ch, 448 kbps [Вторая версия перевода - 2018 год]
Аудио: 48 kHz, AC3 Dolby Digital, 3/2 (L,C,R) + L R, LFE ch, 448 kbps [Первая версия перевода - 2013 год]
Релиз-группа:
Общее
Уникальный идентификатор : 254993914047845880074877478123488051324 (0xBFD60A9DC93F3E66ADCCEF5D7696807C)
Полное имя : D:\VIDEO\Мои переводы\Kill_Bill_Vol.2.2004.x264.BDRip.Kyberpunk.mkv
Формат : Matroska
Версия формата : Version 4
Размер файла : 3,67 Гбайт
Продолжительность : 2 ч. 16 м.
Общий поток : 3837 Кбит/сек
Название фильма : Kill Bill: Vol.2 (2004) BDRip
Дата кодирования : UTC 2019-01-06 08:43:46
Программа кодирования : mkvmerge v14.0.0 ('Flow') 64bit
Библиотека кодирования : libebml v1.3.4 + libmatroska v1.4.5
Обложка : Yes
Attachments : Cover.jpg

Видео
Идентификатор : 1
Формат : AVC
Формат/Информация : Advanced Video Codec
Профиль формата : High@L4
Настройки формата : CABAC / 12 Ref Frames
Параметр CABAC формата : Да
Параметр RefFrames формата : 12 кадров
Идентификатор кодека : V_MPEG4/ISO/AVC
Продолжительность : 2 ч. 16 м.
Битрейт : 2939 Кбит/сек
Ширина : 1200 пикселей
Высота : 500 пикселей
Соотношение сторон : 2,40:1
Режим частоты кадров : Постоянный
Частота кадров : 23,976 (24000/1001) кадра/сек
Цветовое пространство : YUV
Субдискретизация насыщенности : 4:2:0
Битовая глубина : 8 бит
Тип развёртки : Прогрессивная
Бит/(Пиксели*Кадры) : 0.204
Размер потока : 2,81 Гбайт (77%)
Библиотека кодирования : x264 core 119 r2106kMod 07efeb4
Настройки программы : cabac=1 / ref=12 / deblock=1:-3:-2 / analyse=0x3:0x133 / me=umh / subme=11 / psy=1 / fade_compensate=0.00 / psy_rd=1.10:0.05 / mixed_ref=1 / me_range=32 / chroma_me=1 / trellis=2 / 8x8dct=1 / cqm=0 / deadzone=21,11 / fast_pskip=1 / chroma_qp_offset=-3 / threads=6 / sliced_threads=0 / nr=0 / decimate=1 / interlaced=0 / bluray_compat=0 / constrained_intra=0 / bframes=11 / b_pyramid=2 / b_adapt=2 / b_bias=0 / direct=1 / weightb=1 / open_gop=0 / weightp=2 / keyint=250 / keyint_min=23 / scenecut=40 / intra_refresh=0 / rc=crf / mbtree=0 / crf=20.2000 / qcomp=0.70 / qpmin=0 / qpmax=69 / qpstep=4 / ip_ratio=1.40 / pb_ratio=1.20 / aq=2:0.80
Язык : English
Default : Да
Forced : Нет
Цветовой диапазон : Limited
Коэффициенты матрицы : BT.709

Аудио #1
Идентификатор : 2
Формат : AC-3
Формат/Информация : Audio Coding 3
Коммерческое название : Dolby Digital
Идентификатор кодека : A_AC3
Продолжительность : 2 ч. 16 м.
Вид битрейта : Постоянный
Битрейт : 448 Кбит/сек
Каналы : 6 каналов
Channel layout : L R C LFE Ls Rs
Частота : 48,0 КГц
Частота кадров : 31,250 кадров/сек (1536 SPF)
Битовая глубина : 16 бит
Метод сжатия : С потерями
Размер потока : 439 Мбайт (12%)
Заголовок : М.Яроцкий - 2018 год
Язык : Russian
ServiceKind/String : Complete Main
Default : Да
Forced : Нет

Аудио #2
Идентификатор : 3
Формат : AC-3
Формат/Информация : Audio Coding 3
Коммерческое название : Dolby Digital
Идентификатор кодека : A_AC3
Продолжительность : 2 ч. 16 м.
Вид битрейта : Постоянный
Битрейт : 448 Кбит/сек
Каналы : 6 каналов
Channel layout : L R C LFE Ls Rs
Частота : 48,0 КГц
Частота кадров : 31,250 кадров/сек (1536 SPF)
Битовая глубина : 16 бит
Метод сжатия : С потерями
Размер потока : 439 Мбайт (12%)
Заголовок : М.Яроцкий - 2013 год
Язык : Russian
ServiceKind/String : Complete Main
Default : Нет
Forced : Нет









   Похожие торренты   Торрент   Размер 
В этой теме нет новых непрочитанных сообщений. Убить Билла: Часть 1 / Kill Bill: Vol. 1 (Квентин Тарантино) [2003, боевик, триллер, криминал, BDRip-AVC] AVO

23 | 4

2.62 ГБ

В этой теме нет новых непрочитанных сообщений. Убить Билла 2 / Kill Bill: Vol. 2 (2004) BDRip 720p от HELLYWOOD | D, P2, A

4 | 0

11.08 ГБ

В этой теме нет новых непрочитанных сообщений. Убить Билла 2 / Kill Bill: Vol. 2 (2004) WEB-DLRip-AVC от ExKinoRay | D | Open Matte

1 | 0

1.08 ГБ

В этой теме нет новых непрочитанных сообщений. Убить Билла 2 / Kill Bill: Vol. 2 (2004) Hybrid 1080p | D, P2, A

0 | 2

10.04 ГБ

В этой теме нет новых непрочитанных сообщений. Город грехов 2: Женщина, ради которой стоит убивать / Sin City: A Dame to Kill For (Фрэнк Миллер, Роберт Родригес, Квентин Тарантино) [2014, Триллер, Криминал, Детектив, Боевик, BDRip-AVC] VO [Solod]

1 | 0

1.46 ГБ

В этой теме нет новых непрочитанных сообщений. Убить Билла / Kill Bill: Vol. 1 (2003) BDRip 720p от HELLYWOOD | D, P2, P, A

7 | 1

9.8 ГБ

В этой теме нет новых непрочитанных сообщений. Убить Билла / Kill Bill: Vol. 1 (2003) WEB-DLRip-AVC от ExKinoRay | D | Open Matte

4 | 0

1.07 ГБ




Вы не можете начинать темы
Вы не можете отвечать на сообщения
Вы не можете редактировать свои сообщения
Вы не можете удалять свои сообщения
Вы не можете добавлять вложения

Перейти:  
Контактная информация: rstracker[пёсик]yandex.ru
 Вход
ppkBB3cker v.2 © 2008-2014 @ PPK
[ Time : 0.554s | 20 Queries | GZIP : Off ]

cron