img image001 image001 image001 image001 image001 image001 image001 image001 image001 image001 image001 image001 image001 image001 image001

Planets Sun Sun Sun

COVID-19 - Последняя информация о коронавирусе на сайте Минздрава


Статистика раздачи
Автор: Снежана | Размер: 1.02 ГБ | Добавлен: 17 янв 2019
Раздают: 4    Качают: 0
Скачать торрент
Скачать торрент
Описание торрента

СообщениеДобавлено: 17 янв 2019 

Информация о фильме
Название: Край монстров 2
Оригинальное название: Monsterland 2
Год выхода: 2018
Жанр: Ужасы
Режиссер: Джонатан Холбрук, Арлен Конопаки
В ролях: Джонатан Холбрук, Арлен Конопаки, Кори Норман
О фильме:
Сборник короткометражек-фильмов ужасов про различных необычных существ разной степени мерзости. Приятного аппетита.

Страна: США
Продолжительность: 01:14:03
Перевод: Любительский (двухголосый закадровый) | HiWay Grope
Файл
Кодек: XviD
Качество: HDRip
Видео: 720x400, 23.976 fps, ~1765 kbps, 0.26 bit/pixel
Звук:
Аудио rus: AC3, 48 kHz, 2 ch, 192 Kbps
Субтитры: отсутствуют
Реклама: присутствует
Семпл
General
Complete name : D:Monsterland.2.2018.HDRip.HiWayGropeMonsterland.2.2018.HDRip.HiWayGrope.avi
Format : AVI
Format/Info : Audio Video Interleave
Format profile : OpenDML
File size : 1.02 GiB
Duration : 1 h 14 min
Overall bit rate : 1 965 kb/s
Writing application : Lavf57.71.100
Video
ID : 0
Format : MPEG-4 Visual
Format profile : Advanced Simple@L5
Format settings, BVOP : No
Format settings, QPel : No
Format settings, GMC : No warppoints
Format settings, Matrix : Default (H.263)
Codec ID : XVID
Codec ID/Hint : XviD
Duration : 1 h 14 min
Bit rate : 1 758 kb/s
Width : 720 pixels
Height : 400 pixels
Display aspect ratio : 16:9
Frame rate : 23.976 (24000/1001) FPS
Color space : YUV
Chroma subsampling : 4:2:0
Bit depth : 8 bits
Scan type : Progressive
Compression mode : Lossy
Bits/(Pixel*Frame) : 0.255
Stream size : 931 MiB (90%)
Writing library : XviD 67
Audio
ID : 1
Format : AC-3
Format/Info : Audio Coding 3
Commercial name : Dolby Digital
Codec ID : 2000
Duration : 1 h 14 min
Bit rate mode : Constant
Bit rate : 192 kb/s
Channel(s) : 2 channels
Channel layout : L R
Sampling rate : 48.0 kHz
Frame rate : 31.250 FPS (1536 SPF)
Bit depth : 16 bits
Compression mode : Lossy
Stream size : 102 MiB (10%)
Alignment : Aligned on interleaves
Interleave, duration : 32 ms (0.77 video frame)
Service kind : Complete Main


Релиз от: HiWay Grope

   Похожие торренты   Торрент   Размер 
В этой теме нет новых непрочитанных сообщений. Вечеринка монстров / Monster Party (Крис фон Хоффманн) [2018, ужасы, детектив, триллер, HDRip] MVO

0 | 0

1.46 ГБ

В этой теме нет новых непрочитанных сообщений. Монстерлэнд / Monsterland (2016) WEB-DLRip | L2

16 | 0

1.24 ГБ

В этой теме нет новых непрочитанных сообщений. Засекреченные списки. Остаться в живых! Семь монстров вокруг нас (Эфир от 17.02.2018) (Рен ТВ) [2018, документальный, WEB-DLRip]

4 | 0

1.47 ГБ

В этой теме нет новых непрочитанных сообщений. Засекреченные списки. Остаться в живых! Семь монстров вокруг нас (Эфир от 17.02.2018) (Телеканал РЕН ТВ) [2018, документальный, SATRip]

2 | 0

1.25 ГБ

В этой теме нет новых непрочитанных сообщений. Сладостный край / Sweet Country (2017) HDRip от ExKinoRay | BadBajo

39 | 10

1.45 ГБ

В этой теме нет новых непрочитанных сообщений. Край / Kuang shou (Джонатан Ли) [2017, Боевик, криминал, HDRip] MVO

2 | 4

1.37 ГБ

В этой теме нет новых непрочитанных сообщений. National Geographic: Путешествие на край Вселенной / Journey to the Edge of the Universe (2008) HDRip | КПК | D

6 | 4

461.28 МБ




Вы не можете начинать темы
Вы не можете отвечать на сообщения
Вы не можете редактировать свои сообщения
Вы не можете удалять свои сообщения
Вы не можете добавлять вложения

Перейти:  
Контактная информация: rstracker[пёсик]yandex.ru
 Вход
ppkBB3cker v.2 © 2008-2014 @ PPK
[ Time : 1.698s | 16 Queries | GZIP : Off ]

cron