img image001 image001 image001 image001 image001 image001 image001 image001 image001 image001 image001 image001 image001 image001 image001

Planets Sun Sun Sun

COVID-19 - Последняя информация о коронавирусе на сайте Минздрава


Статистика раздачи
Автор: Снежана | Размер: 5.01 ГБ | Добавлен: 24 янв 2019
Раздают: 2    Качают: 7
Скачать торрент
Скачать торрент
Описание торрента

СообщениеДобавлено: 24 янв 2019 

Информация о фильме
Название: Долгая помолвка
Оригинальное название: Un long dimanche de fiançailles
Год выхода: 2004
Жанр: Драма, мелодрама, детектив, военный
Режиссер: Жан-Пьер Жёне
В ролях: Одри Тоту, Гаспар Ульель, Доминик Пинон, Шанталь Нойвирт, Андре Дюссолье, Тикки Ольгадо, Марион Котийяр, Доминик Беттенфельд, Джоди Фостер, Жан-Пьер Дарруссен, Кловис Корнийяк, Жан-Пьер Беккер, Дени Лаван, Жером Киршер, Альбер Дюпонтель, Жан-Поль Рув, Элина Лёвензон, Жюли Депардьё, Мишель Вюйермоз, Юрбен Канселье, Мод Райе, Мишель Робен, Чеки Карио, Жан-Клод Дрейфюс, Филипп Дюкен, Були Ланнер, Стефан Бюте, Кристиан Перейра, Франсуа Леванталь, Патрик Пару, Солен Ле Пешон, Виржиль Леклер, Флоранс Томассен, Тьерри Гибо, Жилль Массон, Сандрин Риго, Марк Фор
О фильме:
Конец Первой мировой войны. История девушки, упорно ищущей своего исчезнувшего жениха. Он — один из пяти французских солдат, приговорённых при загадочных обстоятельствах военно-полевым судом к смерти. Способом исполнения наказания избран не расстрел. Приговорённых оставляют на нейтральной полосе, где их непременно настигнет пуля если не противника, то своих же товарищей по оружию. Лишь бессмертная любовь способна преодолеть мучительное испытание с целью найти правду...
Фильм снят по мотивам романа Себастьена Жапризо «Долгая помолвка» (Un long dimanche de fiançailles, 1991).

MPAA: R - Лицам до 17 лет обязательно присутствие взрослого
Страна: Франция, США
Студия: 2003 Productions, Warner Bros., Tapioca Films
Продолжительность: 02:13:10
Перевод: Профессиональный (дублированный), Авторский (одноголосый, закадровый)
Файл
Формат: Matroska
Качество: BDRip 720p
Видео: 1280х544 at 24.000 fps, x264, ~4292 kbps avg
Аудио#1: Russian: 48 kHz, AC3, 3/2 (L,C,R,l,r) + LFE ch, ~448 kbps avg | дублированный, МОСФИЛЬМ-мастер
Аудио#2: Russian: 48 kHz, AC3, 2/0 (L,R) ch, ~192 kbps avg | авторский, Юрий Сербин
Аудио#3: French: 48 kHz, AC3, 3/2 (L,C,R,l,r) + LFE ch, ~448 kbps avg | оригинал
Субтитры: Русские, английские
Навигация по главам: Есть
***Релиз: msltel
Общее
Уникальный идентификатор : 235390840796198570648994443041422201889 (0xB116A07C0503C0149C91F4B8B4B45421)
Полное имя : D:VideoДолгая помолвка.2004.BDRip.720p by msltel.mkv
Формат : Matroska
Версия формата : Version 4 / Version 2
Размер файла : 5,01 Гбайт
Продолжительность : 2 ч. 13 м.
Общий поток : 5382 Кбит/сек
Название фильма : Rip by msltel
Дата кодирования : UTC 2018-03-08 15:22:26
Программа кодирования : mkvmerge v8.2.0 ('World of Adventure') 64bit
Библиотека кодирования : libebml v1.3.1 + libmatroska v1.4.2
Видео
Идентификатор : 1
Формат : AVC
Формат/Информация : Advanced Video Codec
Профиль формата : High@L4.1
Настройки формата : CABAC / 9 Ref Frames
Параметр CABAC формата : Да
Параметр RefFrames формата : 9 кадров
Идентификатор кодека : V_MPEG4/ISO/AVC
Продолжительность : 2 ч. 13 м.
Битрейт : 4292 Кбит/сек
Ширина : 1280 пикселей
Высота : 544 пикселя
Соотношение сторон : 2,35:1
Режим частоты кадров : Постоянный
Частота кадров : 24,000 кадра/сек
Цветовое пространство : YUV
Субдискретизация насыщенности : 4:2:0
Битовая глубина : 8 бит
Тип развёртки : Прогрессивная
Бит/(Пиксели*Кадры) : 0.257
Размер потока : 3,99 Гбайт (80%)
Библиотека кодирования : x264 core 146 r2538 121396c
Настройки программы : cabac=1 / ref=9 / deblock=1:-3:-2 / analyse=0x3:0x113 / me=umh / subme=11 / psy=1 / psy_rd=1.00:0.15 / mixed_ref=1 / me_range=32 / chroma_me=1 / trellis=2 / 8x8dct=1 / cqm=0 / deadzone=21,11 / fast_pskip=0 / chroma_qp_offset=-3 / threads=6 / lookahead_threads=1 / sliced_threads=0 / nr=0 / decimate=1 / interlaced=0 / bluray_compat=0 / constrained_intra=0 / bframes=8 / b_pyramid=2 / b_adapt=2 / b_bias=0 / direct=1 / weightb=1 / open_gop=0 / weightp=2 / keyint=230 / keyint_min=23 / scenecut=40 / intra_refresh=0 / rc_lookahead=40 / rc=crf / mbtree=0 / crf=18.0 / qcomp=0.60 / qpmin=0 / qpmax=69 / qpstep=4 / vbv_maxrate=62500 / vbv_bufsize=78125 / crf_max=0.0 / nal_hrd=none / filler=0 / ip_ratio=1.40 / pb_ratio=1.30 / aq=1:1.00
Язык : French
Default : Да
Forced : Нет
Аудио #1
Идентификатор : 2
Формат : AC-3
Формат/Информация : Audio Coding 3
Идентификатор кодека : A_AC3
Продолжительность : 2 ч. 13 м.
Вид битрейта : Постоянный
Битрейт : 448 Кбит/сек
Каналы : 6 каналов
Расположение каналов : Front: L C R, Side: L R, LFE
Частота : 48,0 КГц
Частота кадров : 31,250 кадров/сек (1536 SPF)
Битовая глубина : 16 бит
Метод сжатия : С потерями
Размер потока : 427 Мбайт (8%)
Заголовок : DUB МОСФИЛЬМ-мастер
Язык : Russian
ServiceKind : Complete Main
Default : Да
Forced : Нет
Аудио #2
Идентификатор : 3
Формат : AC-3
Формат/Информация : Audio Coding 3
Идентификатор кодека : A_AC3
Продолжительность : 2 ч. 13 м.
Вид битрейта : Постоянный
Битрейт : 192 Кбит/сек
Каналы : 2 канала
Расположение каналов : Front: L R
Частота : 48,0 КГц
Частота кадров : 31,250 кадров/сек (1536 SPF)
Битовая глубина : 16 бит
Метод сжатия : С потерями
Размер потока : 183 Мбайт (4%)
Заголовок : Юрий Сербин
Язык : Russian
ServiceKind : Complete Main
Default : Нет
Forced : Нет
Аудио #3
Идентификатор : 4
Формат : AC-3
Формат/Информация : Audio Coding 3
Идентификатор кодека : A_AC3
Продолжительность : 2 ч. 13 м.
Вид битрейта : Постоянный
Битрейт : 448 Кбит/сек
Каналы : 6 каналов
Расположение каналов : Front: L C R, Side: L R, LFE
Частота : 48,0 КГц
Частота кадров : 31,250 кадров/сек (1536 SPF)
Битовая глубина : 16 бит
Метод сжатия : С потерями
Размер потока : 427 Мбайт (8%)
Заголовок : original
Язык : French
ServiceKind : Complete Main
Default : Нет
Forced : Нет
Текст #1
Идентификатор : 5
Формат : UTF-8
Идентификатор кодека : S_TEXT/UTF8
Идентификатор кодека/Информация : UTF-8 Plain Text
Продолжительность : 2 ч. 7 м.
Битрейт : 95 бит/сек
ElementCount : 1498
Размер потока : 88,8 Кбайт (0%)
Заголовок : русские
Язык : Russian
Default : Нет
Forced : Нет
Текст #2
Идентификатор : 6
Формат : UTF-8
Идентификатор кодека : S_TEXT/UTF8
Идентификатор кодека/Информация : UTF-8 Plain Text
Продолжительность : 2 ч. 12 м.
Битрейт : 44 бит/сек
ElementCount : 1413
Размер потока : 43,5 Кбайт (0%)
Заголовок : английские
Язык : English
Default : Нет
Forced : Нет
Меню
00:00:00.000 : :Chapter 01
00:01:33.416 : :Chapter 02
00:04:15.000 : :Chapter 03
00:05:41.582 : :Chapter 04
00:07:14.083 : :Chapter 05
00:09:16.625 : :Chapter 06
00:13:09.665 : :Chapter 07
00:16:15.708 : :Chapter 08
00:18:05.000 : :Chapter 09
00:20:06.416 : :Chapter 10
00:22:42.250 : :Chapter 11
00:25:31.375 : :Chapter 12
00:27:45.166 : :Chapter 13
00:29:11.750 : :Chapter 14
00:33:17.000 : :Chapter 15
00:37:25.083 : :Chapter 16
00:40:19.291 : :Chapter 17
00:44:59.000 : :Chapter 18
00:45:59.375 : :Chapter 19
00:47:30.000 : :Chapter 20
00:49:09.000 : :Chapter 21
00:53:54.000 : :Chapter 22
00:57:19.625 : :Chapter 23
01:06:02.541 : :Chapter 24
01:10:41.000 : :Chapter 25
01:12:54.750 : :Chapter 26
01:14:35.457 : :Chapter 27
01:15:41.375 : :Chapter 28
01:24:14.791 : :Chapter 29
01:27:16.375 : :Chapter 30
01:30:29.375 : :Chapter 31
01:32:28.582 : :Chapter 32
01:35:32.582 : :Chapter 33
01:40:04.666 : :Chapter 34
01:44:49.375 : :Chapter 35
01:53:29.791 : :Chapter 36
01:57:35.791 : :Chapter 37
02:01:58.458 : :Chapter 38
02:06:18.375 : :Chapter 39


   Похожие торренты   Торрент   Размер 
В этой теме нет новых непрочитанных сообщений. Долгая помолвка / Un long dimanche de fiançailles / A Very Long Engagement (2004) BDRip-AVC | D

0 | 0

2.67 ГБ

В этой теме нет новых непрочитанных сообщений. Долгая помолвка / Un long dimanche de fiançailles / A Very Long Engagement (2004) BDRemux 1080р | D

0 | 0

24.92 ГБ

В этой теме нет новых непрочитанных сообщений. Жизнь – это долгая спокойная река / La vie est un long fleuve tranquille (1988) BDRip 720p | P

14 | 0

6.29 ГБ

В этой теме нет новых непрочитанных сообщений. Долгая прогулка Билли Линна в перерыве футбольного матча / Billy Lynn's Long Halftime Walk (2016) BDRip 720p | L

24 | 4

5.41 ГБ

В этой теме нет новых непрочитанных сообщений. Долгая дорога домой / The Long Road Home [01x01-02 из 08] (2017) WEBRip 720p | IdeaFilm

0 | 0

3.54 ГБ

В этой теме нет новых непрочитанных сообщений. Долгая идиотская дорога / The Long Dumb Road (Ханна Фидель) [2018, комедия, BDRip] MVO

40 | 1

1.46 ГБ

В этой теме нет новых непрочитанных сообщений. Долгая прогулка Билли Линна в перерыве футбольного матча / Billy Lynn's Long Halftime Walk (2016) BDRip 1080p | L

50 | 4

9.79 ГБ




Вы не можете начинать темы
Вы не можете отвечать на сообщения
Вы не можете редактировать свои сообщения
Вы не можете удалять свои сообщения
Вы не можете добавлять вложения

Перейти:  
Контактная информация: rstracker[пёсик]yandex.ru
 Вход
ppkBB3cker v.2 © 2008-2014 @ PPK
[ Time : 0.035s | 16 Queries | GZIP : Off ]

cron