img image001 image001 image001 image001 image001 image001 image001 image001 image001 image001 image001 image001 image001 image001 image001 image001

Planets Sun Sun Sun
Статистика раздачи
Автор: Снежана | Размер: 770.05 МБ | Добавлен: 11 мар 2019
Раздают: 3    Качают: 2
Скачать торрент
Скачать торрент
Описание торрента

СообщениеДобавлено: 11 мар 2019 

Рокки Джонс, космический Рейнджер: запретная Луна / Forbidden Moon


Перевод: Авторский (Трамвай-фильм), субтитры: отсутствуют
Формат: SATRipAVC, MKV, H.264, AAC
Страна: США
Режиссер: Холлингсворт Морс
Жанр: фантастика, семейный
Продолжительность: 01:15:22
Год выпуска: 1954
В ролях: Ричард Крейн, Сали Менсфилд, Роберт Лиден, Скотти Бекет и др.
Описание: Рокки Джонсу предстоит спасти мир от властного диктатора планеты Медина, который задумал поставить на колени всю Вселенную с помощью открытой им формы радиационного излучения.



Видео: 752x560 (4:3), 24 fps, MPEG4 Video (H264) Baseline@L3 ~1 201 kbps avg, 0.119 bit/pixel
Аудио 1: Русский: 44.100 kHz, AAC-LC, 2 ch, ~128.00 kbps avg (Трамвай-фильм, одноголосый)
Аудио 2: Английский: 44.100 kHz, AAC-LC, 2 ch, ~96.00 kbps avg (оригинал)

Доп. информация: Компиляция трёх серий The Forbidden Moon

Доп. информация: в 1954 году, на экраны США вышел сериал "Рокки Джонс - космический рейнджер", который был после разделен на полнометражные фильмы, слева 3 серии оригинального сериала, справа название полнометражного фильма или без такового.

"Beyond the Curtain of Space" - "Beyond the Moon"
"Rocky''s Odyssey" - "Gypsy Moon"
"Bobby''s Comet" - "Menace from Outer Space"
"Escape Into Space" - без п/м
"The Pirates of Prah" - "Manhunt in Space"
"Silver Needle in the Sky" - "Duel in Space"
"The Forbidden Moon" - "Forbidden Moon"
"Crash of Moons" - "Crash of the Moons"
"Kip''s Private War" - без п/м
"Blast-Off" - без п/м
"The Cold Sun" - "The Cold Sun"
"Inferno in Space" - "The Magnetic Moon"
"Vena and the Darnamo" - без п/м
"Out of This World" - "Robot of Regalio"
"The Trial of Rocky Jones" - "Renegade Satellite"

General
Complete name : Forbidden Moon.mkv
Format : Matroska
Format version : Version 4 / Version 2
File size : 770 MiB
Duration : 1 h 15 min
Overall bit rate : 1 429 kb/s
Encoded date : UTC 2019-03-10 12:05:52
Writing application : mkvmerge v7.1.0 (''Good Love'') 32bit built on Jul 27 2014 12:59:18
Writing library : libebml v1.3.0 + libmatroska v1.4.1

Video
ID : 1
Format : AVC
Format/Info : Advanced Video Codec
Format profile : Baseline@L3
Format settings : 1 Ref Frames
Format settings, CABAC : No
Format settings, ReFrames : 1 frame
Muxing mode : Container profile=Baseline@4.1
Codec ID : V_MPEG4/ISO/AVC
Duration : 1 h 15 min
Bit rate : 1 201 kb/s
Width : 752 pixels
Height : 560 pixels
Display aspect ratio : 4:3
Frame rate mode : Constant
Frame rate : 24.000 FPS
Color space : YUV
Chroma subsampling : 4:2:0
Bit depth : 8 bits
Scan type : Progressive
Bits/(Pixel*Frame) : 0.119
Stream size : 647 MiB (84%)
Default : Yes
Forced : No

Audio #1
ID : 2
Format : AAC
Format/Info : Advanced Audio Codec
Format profile : LC
Codec ID : A_AAC-2
Duration : 1 h 15 min
Bit rate : 128 kb/s
Channel(s) : 2 channels
Channel positions : Front: L R
Sampling rate : 44.1 kHz
Frame rate : 43.066 FPS (1024 SPF)
Compression mode : Lossy
Stream size : 69.0 MiB (9%)
Title : АО Трамвай-фильм
Language : Russian
Default : Yes
Forced : No

Audio #2
ID : 3
Format : AAC
Format/Info : Advanced Audio Codec
Format profile : LC
Codec ID : A_AAC-2
Duration : 1 h 15 min
Bit rate : 96.0 kb/s
Channel(s) : 2 channels
Channel positions : Front: L R
Sampling rate : 44.1 kHz
Frame rate : 43.066 FPS (1024 SPF)
Compression mode : Lossy
Stream size : 52.0 MiB (7%)
Language : English
Default : No
Forced : No








   Похожие торренты   Торрент   Размер 
В этой теме нет новых непрочитанных сообщений. Рокки Джонс, космический рейнджер / Rocky Jones, Space Ranger (Холингсворт Морс) [1954, фантастика, семейный, SATRip] VO

0 | 3

715.82 МБ

В этой теме нет новых непрочитанных сообщений. Рокки Джонс, космический рейнджер / Rocky Jones, Space Ranger (Холингсворт Морс) [1954, Фантастика, Приключения, Семейный, VHSRip-AVC] VO

1 | 1

5.09 ГБ

В этой теме нет новых непрочитанных сообщений. Позади Луны / Beyond the Moon (Холлингсворт Морс) [1954, Фантастика, приключения, семейный, DVDRip-AVC] AVO

2 | 0

528.24 МБ

В этой теме нет новых непрочитанных сообщений. Блуждающие Луны / The Gypsy Moon (Холисворт Морс) [1954, фантастика, семейный, DVDRip] VO

1 | 0

781.92 МБ

В этой теме нет новых непрочитанных сообщений. Облава в космосе / Manhunt in space (Холлингсворт Морс) [1956, фантастика, приключения, семейный, WEBRip] VO

2 | 1

725.62 МБ

В этой теме нет новых непрочитанных сообщений. Серебряные иглы в небе / Дуэль в Космосе / Silver Needle in the Sky / Duel in Space (Холингсворт Морс ) [1954, фантастика, семейный , приключения, DVDRip]VO / Фантастика

1 | 0

780.77 МБ

В этой теме нет новых непрочитанных сообщений. Угроза из космоса / Menace from Outer Space (Холисворт Морс) [1954, Фантастика, Приключения, Семейный, TVRip] VO

4 | 0

895.89 МБ




Вы не можете начинать темы
Вы не можете отвечать на сообщения
Вы не можете редактировать свои сообщения
Вы не можете удалять свои сообщения
Вы не можете добавлять вложения

Перейти:  
 Вход
ppkBB3cker v.2 © 2008-2014 @ PPK
[ Time : 0.024s | 16 Queries | GZIP : Off ]

cron