img image001 image001 image001 image001 image001 image001 image001 image001 image001 image001 image001 image001 image001 image001 image001 image001

Planets Sun Sun Sun
Статистика раздачи
Автор: Снежана | Размер: 1.46 ГБ | Добавлен: 11 мар 2019
Раздают: 15    Качают: 1
Скачать торрент
Скачать торрент
Описание торрента

СообщениеДобавлено: 11 мар 2019 

Чёрная магия / Santet


Перевод: Профессиональный (многоголосый закадровый) HDRezka Studio, субтитры: отсутствуют
Формат: WEBDLRip, MKV, H.264, AC3
Страна: Индонезия
Режиссер: Хелфи Кардит
Жанр: ужасы
Продолжительность: 01:25:39
Год выпуска: 2018
В ролях: Келли Брук, Джаз Окампо, Аю Диа Паша, Рэй Сахетапи ...

Описание: Мужчина берет всю свою семью и отправляется в отчий дом. Отца уже нет в живых, так что их встречает только мать. Ей в последнее время нездоровится, так что им приходится задержаться на некоторое время.
Матушка ведет себя странно. Это можно было бы списать на болезнь, но слишком уж необычные у нее симптомы. Порой возникало мнение, что умом женщины управляет кто-то другой. В итоге сын стал думать, что тут замешана черная магия. Ему необходимо обратиться к местному шаману, чтобы прояснить ситуацию. Но что-то мешает тому, чтобы кто-то из членов семьи покинул дом. Вскоре сущность вырывается наружу...




Видео: 1024x432 (2.40:1), 23.976 fps, AVC MPEG4 (x264), , ~2250 kbps avg, 0.212 bit/pixel
Аудио: 48 kHz, AC3 Dolby Digital, 2 (L,R) ch, ~192.00 kbps avg
eneral
Unique ID : 193951451192435554448633132733801465635 (0x91E9B0D5B49B7DE5F78CC5D1F6288723)
Complete name : C:\Users\123\Downloads\Santet 2018 WEB-DLRip-AVC_[tfile.ru].mkv
Format : Matroska
Format version : Version 4 / Version 2
File size : 1.46 GiB
Duration : 1h 25mn
Overall bit rate mode : Constant
Overall bit rate : 2 442 Kbps
Movie name : Santet 2018 OT werecut PROD.
Encoded date : UTC 2019-03-10 18:32:20
Writing application : Lavf56.36.100
Writing library : Lavf56.36.100

Video
ID : 2
Format : AVC
Format/Info : Advanced Video Codec
Format profile :
Format settings, CABAC : Yes
Format settings, ReFrames : 2 frames
Format settings, GOP : M=1, N=25
Codec ID : V_MPEG4/ISO/AVC
Duration : 1h 25mn
Bit rate mode : Constant
Bit rate : 2 250 Kbps
Width : 1 024 pixels
Height : 432 pixels
Display aspect ratio : 2.40:1
Frame rate mode : Constant
Frame rate : 23.976 fps
Color space : YUV
Chroma subsampling : 4:2:0
Bit depth : 8 bits
Scan type : Progressive
Bits/(Pixel*Frame) : 0.212
Stream size : 1.32 GiB (90%)
Language : English
Default : Yes
Forced : No
DURATION : 01:25:39.051000000
NUMBER_OF_FRAMES : 123214
NUMBER_OF_BYTES : 3732644423
_STATISTICS_WRITING_APP : mkvmerge v28.0.0 (''Voice In My Head'') 64-bit
_STATISTICS_WRITING_DATE_UTC : 2019-03-10 18:32:20
_STATISTICS_TAGS : BPS DURATION NUMBER_OF_FRAMES NUMBER_OF_BYTES

Audio
ID : 1
Format : AC-3
Format/Info : Audio Coding 3
Mode extension : CM (complete main)
Format settings, Endianness : Big
Codec ID : A_AC3
Duration : 1h 25mn
Bit rate mode : Constant
Bit rate : 192 Kbps
Channel(s) : 2 channels
Channel positions : Front: L R
Sampling rate : 48.0 KHz
Bit depth : 32 bits
Compression mode : Lossy
Stream size : 118 MiB (8%)
Title : HDREZKA STUDIO
Language : Russian
Default : Yes
Forced : No
DURATION : 01:25:39.040000000
NUMBER_OF_FRAMES : 160595
NUMBER_OF_BYTES : 123336960
_STATISTICS_WRITING_APP : mkvmerge v28.0.0 (''Voice In My Head'') 64-bit
_STATISTICS_WRITING_DATE_UTC : 2019-03-10 18:32:20
_STATISTICS_TAGS : BPS DURATION NUMBER_OF_FRAMES NUMBER_OF_BYTES










   Похожие торренты   Торрент   Размер 
В этой теме нет новых непрочитанных сообщений. Чёрная магия / Santet (Хелфи Кардит) [2018, ужасы, WEBDLRip] MVO

2 | 2

1.45 ГБ

В этой теме нет новых непрочитанных сообщений. Три Апокрифа: Чёрная магия / Uc Harfliler 3: Karabuyu (Алпер Местчи / Alper Mestci ) [2016, ужасы, WEBRip-AVC] VO / Мистика

12 | 0

1.27 ГБ

В этой теме нет новых непрочитанных сообщений. Демонолог / The Demonologist (Дж.М. Стелли) [2018, ужасы, WEBDLRip] MVO

32 | 0

1.32 ГБ

В этой теме нет новых непрочитанных сообщений. Карма / Karma (Ник Саймон) [2018, ужасы, WEBDLRip-AVC] MVO / Мистика

7 | 2

1.37 ГБ

В этой теме нет новых непрочитанных сообщений. Крайность / Extremity (Энтони ДиБлази) [2018, ужасы, WEBDLRip] MVO

5 | 3

1.37 ГБ

В этой теме нет новых непрочитанных сообщений. Ужаслэнд 2 / Terrortory 2 (Кевин Кангас) [2018, ужасы, WEBDLRip] MVO

16 | 0

1.46 ГБ

В этой теме нет новых непрочитанных сообщений. Карма / Karma (Ник Саймон) [2018, ужасы, WEBDLRip] MVO / Мистика

31 | 1

1.37 ГБ




Вы не можете начинать темы
Вы не можете отвечать на сообщения
Вы не можете редактировать свои сообщения
Вы не можете удалять свои сообщения
Вы не можете добавлять вложения

Перейти:  
 Вход
ppkBB3cker v.2 © 2008-2014 @ PPK
[ Time : 0.027s | 16 Queries | GZIP : Off ]

cron