img image001 image001 image001 image001 image001 image001 image001 image001 image001 image001 image001 image001 image001 image001 image001 image001

Planets Sun Sun Sun
Статистика раздачи
Автор: Снежана | Размер: 2.07 ГБ | Добавлен: 12 мар 2019
Раздают: 12    Качают: 2
Скачать торрент
Скачать торрент
Описание торрента

СообщениеДобавлено: 12 мар 2019 

Неудачники / Underdog Kids

Слоган: "Никогда не сдавайся!"


Перевод: Любительский (одноголосый закадровый) [Paul Bunyan]
Субтитры: английские [вшитые отключаемые]
Формат: WEBDLRip-AVC, AVI, XviD, AC3
Страна: США
Режиссер: Филлип Ри
Жанр: боевик, семейный
Продолжительность: 01:34:23
Год выпуска: 2015
В ролях: Филлип Ри, Бо Бриджес, Мирелли Тейлор, Том Арнольд, Макс Гэйл, Эллиа Инглиш, Лорен Боулз, Адам Иригойен, Грег Гранберг, Тед МакГинли

Описание: У детей и подростков образовался своеобразный круг по интересам. Каждый, кто имел отношения к этой организации преследовал одну цель, он хотел раз и навсегда лишиться позорного клейма неудачника, мечтал заслужить уважение и авторитет среди сверстников. Но все их попытки и старания не увенчались успехом ровно до того дня, когда они не познакомились с мастером боевых искусств, который впоследствии стал их учителем и наставником.


Видео: 1024x572 (16:9), 23.976 fps, AVC MPEG-4 (H.264), ~2400 kbps, 0.171 bit/pixel
Аудио #1: Русский: 48 kHz, AC3 Dolby Digital, 3/2 (L,C,R,l,r) + LFE ch, ~384 kbps [Любительский (одноголосый закадровый)]
Аудио #2: Английский: 48 kHz, AC3 Dolby Digital, 3/2 (L,C,R,l,r) + LFE ch, ~384 kbps [Оригинал]


Общее
Уникальный идентификатор : 318870474912445602832258691050192818594 (0xEFE43837CD8F98F554FA08F31F90D1A2)
Полное имя : F:\Диск\01. ФИЛЬМЫ\Неудачники Underdog Kids (2015)\Luchshie.iz.hudshih.2015.L1.WEB-DLRip-AVC.mkv
Формат : Matroska
Версия формата : Version 4
Размер файла : 2,07 Гбайт
Продолжительность : 1 ч. 34 м.
Общий поток : 3143 Кбит/сек
Программа кодирования : Lavf
Библиотека кодирования : Lavf
Авторское право : [#ZsU®]
ErrorDetectionType : Per level 1
Attachments : poster
Язык : und

Видео
Идентификатор : 1
Формат : AVC
Формат/Информация : Advanced Video Codec
Профиль формата :
Настройки формата : CABAC / 9 Ref Frames
Параметр CABAC формата : Да
Параметр RefFrames формата : 9 кадров
Идентификатор кодека : V_MPEG4/ISO/AVC
Продолжительность : 1 ч. 34 м.
Битрейт : 2400 Кбит/сек
Ширина : 1024 пикселя
Высота : 572 пикселя
Соотношение сторон : 16:9
Режим частоты кадров : Постоянный
Частота кадров : 23,976 (24000/1001) кадра/сек
Цветовое пространство : YUV
Субдискретизация насыщенности : 4:2:0
Битовая глубина : 8 бит
Тип развёртки : Прогрессивная
Бит/(Пиксели*Кадры) : 0.171
Размер потока : 1,52 Гбайт (74%)
Библиотека кодирования : x264 core 157 r2935 545de2f
Настройки программы : cabac=1 / ref=10 / deblock=1:-2:-2 / analyse=0x3:0x133 / me=umh / subme=10 / psy=1 / psy_rd=1.05:0.10 / mixed_ref=1 / me_range=16 / chroma_me=1 / trellis=2 / 8x8dct=1 / cqm=0 / deadzone=21,11 / fast_pskip=0 / chroma_qp_offset=-3 / threads=5 / lookahead_threads=1 / sliced_threads=0 / nr=0 / decimate=1 / interlaced=0 / bluray_compat=0 / constrained_intra=0 / bframes=10 / b_pyramid=1 / b_adapt=1 / b_bias=10 / direct=1 / weightb=1 / open_gop=0 / weightp=1 / keyint=240 / keyint_min=24 / scenecut=40 / intra_refresh=0 / rc=abr / mbtree=0 / bitrate=2400 / ratetol=1.0 / qcomp=0.70 / qpmin=3 / qpmax=69 / qpstep=4 / ip_ratio=1.40 / pb_ratio=1.30 / aq=2:1.00
Язык : English
Default : Да
Forced : Нет
Цветовой диапазон : Limited
Основные цвета : BT.709
Характеристики трансфера : BT.709
Коэффициенты матрицы : BT.709

Аудио #1
Идентификатор : 2
Формат : AC-3
Формат/Информация : Audio Coding 3
Коммерческое название : Dolby Digital
Идентификатор кодека : A_AC3
Продолжительность : 1 ч. 34 м.
Вид битрейта : Постоянный
Битрейт : 384 Кбит/сек
Каналы : 6 каналов
Channel layout : L R C LFE Ls Rs
Частота : 48,0 КГц
Частота кадров : 31,250 кадров/сек (1536 SPF)
Битовая глубина : 16 бит
Метод сжатия : С потерями
Размер потока : 259 Мбайт (12%)
Язык : Russian
ServiceKind/String : Complete Main
Default : Да
Forced : Нет

Аудио #2
Идентификатор : 3
Формат : AC-3
Формат/Информация : Audio Coding 3
Коммерческое название : Dolby Digital
Идентификатор кодека : A_AC3
Продолжительность : 1 ч. 34 м.
Вид битрейта : Постоянный
Битрейт : 384 Кбит/сек
Каналы : 6 каналов
Channel layout : L R C LFE Ls Rs
Частота : 48,0 КГц
Частота кадров : 31,250 кадров/сек (1536 SPF)
Битовая глубина : 16 бит
Метод сжатия : С потерями
Размер потока : 259 Мбайт (12%)
Язык : English
ServiceKind/String : Complete Main
Default : Нет
Forced : Нет

Текст
Идентификатор : 4
Формат : UTF-8
Идентификатор кодека : S_TEXT/UTF8
Идентификатор кодека/Информация : UTF-8 Plain Text
Язык : English
Default : Да
Forced : Нет

Меню
00:00:00.000 : :Main Titles
00:02:51.000 : :The New Coach
00:10:33.000 : :The Competition
00:18:07.000 : :"Your Kids Really Suck"
00:28:40.000 : :Looking For Help
00:36:00.000 : :Big Mama To The Rescue
00:44:52.000 : :The Underdogs
00:50:28.000 : :Unconventional Training
00:59:29.000 : :Opportunity Knocks
01:07:09.000 : :Unsportsmanlike Conduct
01:18:34.000 : :Overcoming Obstacles
01:30:25.000 : :End Credits










   Похожие торренты   Торрент   Размер 
В этой теме нет новых непрочитанных сообщений. Неудачники / Underdog Kids (2015) WEB-DLRip | L1

1141 | 62

1.37 ГБ

В этой теме нет новых непрочитанных сообщений. Неудачники / Underdog Kids (2015) WEB-DL 720p | L1

715 | 104

3.09 ГБ

В этой теме нет новых непрочитанных сообщений. Неудачники / Underdog Kids (2015) WEB-DLRip от torrentfilm | L1

70 | 13

747.77 МБ

В этой теме нет новых непрочитанных сообщений. Святой / The Saint (Филлип Нойс) [1997, фантастика, боевик, мелодрама, приключения, WEBDLRip] DUB / Боевики /Action

8 | 2

2.19 ГБ

В этой теме нет новых непрочитанных сообщений. Отряд / The Rack Pack (Томас Дж. Черчилль) [2018, фэнтези, боевик, приключения, семейный, WEBDLRip] DVO / Детское

6 | 0

1.48 ГБ

В этой теме нет новых непрочитанных сообщений. Джуманджи: Зов джунглей / Jumanji: Welcome to the Jungle (Джейк Кэздан) [2017, фэнтези, боевик, комедия, приключения, семейный, WEBDLRip-AVC] DUB

0 | 13

1.46 ГБ

В этой теме нет новых непрочитанных сообщений. Путешествие в Запретную долину / Journey to the Forbidden Valley (Этан Уайли) [2016, боевик, приключения, семейный, WEBDLRip] MVO / Приключения

52 | 0

1.46 ГБ




Вы не можете начинать темы
Вы не можете отвечать на сообщения
Вы не можете редактировать свои сообщения
Вы не можете удалять свои сообщения
Вы не можете добавлять вложения

Перейти:  
 Вход
ppkBB3cker v.2 © 2008-2014 @ PPK
[ Time : 0.025s | 18 Queries | GZIP : Off ]

cron