img image001 image001 image001 image001 image001 image001 image001 image001 image001 image001 image001 image001 image001 image001 image001 image001

Planets Sun Sun Sun
Статистика раздачи
Автор: Снежана | Размер: 1.27 ГБ | Добавлен: 23 мар 2019
Раздают: 12    Качают: 0
Скачать торрент
Скачать торрент
Описание торрента

СообщениеДобавлено: 23 мар 2019 

Три Апокрифа: Чёрная магия / Uc Harfliler 3: Karabuyu


Перевод: Любительский (одноголосый) datynet; перевод: Куценко, субтитры: есть
Формат: WEBRip-AVC, MKV, H.264, MP3
Страна: Турция
Режиссер: Алпер Местчи / Alper Mestçi
Жанр: ужасы
Продолжительность: 01:27:20
Год выпуска: 2016
В ролях: Седа Огуз, Озай Фехт, Дениз Гюндогду, Метин Йылдырым, Мэрвэ Эйтс, Юджел Тунджа, Седат Девелик, Нефисе Седа Яник, Фатма Нилгун Исламоглу, Гюлсах Тютел.
Описание: Черная Магия — это колдовство агрессивное. Действия такого колдовства направлены на агрессивное достижение целей. Если есть враг, то пощады не будет, а будет только месть и месть жесткая. Именно на это направлены порчи, проклятия и сглазы. Вот и Кадир, стал жертвой черной магии от своей собственной матери, которая ревностно относилась к каждым женщинам, включая его жену, и кто бы мог подумать, что всё пойдет вверх дном против её несбыточных ожиданий.



Видео: 1920x1080 (16:9), 25fps, MPEG4 Video (H264) High@L4 ~1 880 kbps avg, 0.036 bit/pixel
Аудио: 48 kHz, MPEG Layer 3, 2 ch, ~192 kbps avg
Доп. информация:

General
Unique ID : 186238446019388266276817962092276166201 (0x8C1C3851D2299092AF80552EF3EB2E39)
Complete name : Üç Harfliler 3 Karabüyü (2016).mkv
Format : Matroska
Format version : Version 4 / Version 2
File size : 1.27 GiB
Duration : 1 h 27 min
Overall bit rate : 2 072 kb/s
Encoded date : UTC 2019-03-20 10:39:03
Writing application : mkvmerge v9.6.0 (''Slave To Your Mind'') 64bit
Writing library : libebml v1.3.4 + libmatroska v1.4.5

Video
ID : 1
Format : AVC
Format/Info : Advanced Video Codec
Format profile : High@L4
Format settings, CABAC : Yes
Format settings, RefFrames : 3 frames
Codec ID : V_MPEG4/ISO/AVC
Duration : 1 h 27 min
Bit rate : 1 880 kb/s
Width : 1 920 pixels
Height : 1 080 pixels
Display aspect ratio : 16:9
Frame rate mode : Constant
Frame rate : 25.000 FPS
Color space : YUV
Chroma subsampling : 4:2:0
Bit depth : 8 bits
Scan type : Progressive
Bits/(Pixel*Frame) : 0.036
Stream size : 1.15 GiB (91%)
Default : Yes
Forced : No
Color range : Limited
Color primaries : BT.709
Transfer characteristics : BT.709
Matrix coefficients : BT.709

Audio
ID : 2
Format : MPEG Audio
Format version : Version 1
Format profile : Layer 3
Mode : Joint stereo
Codec ID : A_MPEG/L3
Codec ID/Hint : MP3
Duration : 1 h 27 min
Bit rate mode : Constant
Bit rate : 192 kb/s
Channel(s) : 2 channels
Sampling rate : 48.0 kHz
Frame rate : 41.667 FPS (1152 SPF)
Compression mode : Lossy
Stream size : 120 MiB (9%)
Default : Yes
Forced : No





















   Похожие торренты   Торрент   Размер 
В этой теме нет новых непрочитанных сообщений. Три Апокрифа: Проклятие / Uc Harfliler: Beddua (Алпер Местчи / Alper Mestсi) [2018, ужасы, WEBRip-AVC] VO / Мистика

46 | 0

838.29 МБ

В этой теме нет новых непрочитанных сообщений. Чёрная магия / Santet (Хелфи Кардит) [2018, ужасы, WEBDLRip] MVO

15 | 1

1.46 ГБ

В этой теме нет новых непрочитанных сообщений. Чёрная магия / Santet (Хелфи Кардит) [2018, ужасы, WEBDLRip] MVO

2 | 2

1.45 ГБ

В этой теме нет новых непрочитанных сообщений. Кукла / Мальчик / The Boy (Уильям Брент Белл) [2016, ужасы, мистика, триллер, детектив, BDRip] DUB / Мистика

48 | 2

1.46 ГБ

В этой теме нет новых непрочитанных сообщений. Сомния / Before I Wake (Майк Флэнеган) [2016, ужасы, мистика, триллер, драма, детектив, BDRip] DUB / Мистика

24 | 0

2.1 ГБ

В этой теме нет новых непрочитанных сообщений. Сибирский потрошитель (Сергей Жизненный) [2016, ужасы, триллер, драма, WEBRip] / Мистика

19 | 0

1.37 ГБ

В этой теме нет новых непрочитанных сообщений. Гиперсомния / Hipersomnia (Гэбриел Греко) [2016, триллер, ужасы, детектив, WEBRip-AVC] VO / Мистика

5 | 0

741.05 МБ




Вы не можете начинать темы
Вы не можете отвечать на сообщения
Вы не можете редактировать свои сообщения
Вы не можете удалять свои сообщения
Вы не можете добавлять вложения

Перейти:  
 Вход
ppkBB3cker v.2 © 2008-2014 @ PPK
[ Time : 0.055s | 15 Queries | GZIP : Off ]

cron