img image001 image001 image001 image001 image001 image001 image001 image001 image001 image001 image001 image001 image001 image001 image001

Planets Sun Sun Sun
Статистика раздачи
Автор: Снежана | Размер: 1.46 ГБ | Добавлен: 15 апр 2019
Раздают: 4    Качают: 0
Скачать торрент
Скачать торрент
Описание торрента

СообщениеДобавлено: 15 апр 2019 

Время монстров / Охотник за головами / The Head Hunter


Перевод: Авторский (одноголосый) М.Яроцкий, субтитры: отсутствуют
Формат: WEBDLRip, AVI, XviD, AC3
Страна: США
Режиссер: Джордан Дауни
Жанр: ужасы, фэнтези
Продолжительность: 01:11:57
Год выпуска: 2018

В ролях: Кристофер Рай, Кора Кауфман

Описание: Одно из зловещих существ убивает дочь отважного воина, который с этого момента живет лишь ради мести. Эти твари держат в страхе все королевство. Но жаждущий возмездия отец истребляет их одного за другим. Он пытается найти того самого монстра, который отобрал у него самое дорогое. Сможет ли он найти его раньше, чем тот придет за ним сам?



Видео: 720x400 (1.76:1), 23.976 fps, XviD build 73 ~2440 kbps avg, 0.353 bit/pixel
Аудио: 48 kHz, AC3 Dolby Digital, 3/2 (L,C,R) + L R, LFE ch, 448 kbps
Релиз-группа:
Общее
Полное имя : D:\VIDEO\Мои переводы\The Head Hunter.2018.WEB-DLRip.AVO.avi
Формат : AVI
Формат/Информация : Audio Video Interleave
Размер файла : 1,46 Гбайт
Продолжительность : 1 ч. 11 м.
Общий поток : 2898 Кбит/сек
Программа кодирования : VirtualDubMod 1.5.10.3 | www.virtualdub-fr.org || (build 2550/release)
Библиотека кодирования : VirtualDubMod build 2550/release

Видео
Идентификатор : 0
Формат : MPEG-4 Visual
Профиль формата : Advanced Simple@L5
Настройки формата : BVOP1 / Custom Matrix
Параметр BVOP формата : 1
Параметр QPel формата : Нет
Параметр GMC формата : Без точки перехода
Параметр матрицы формата : Выборочная
Идентификатор кодека : XVID
Идентификатор кодека/Подсказка : XviD
Продолжительность : 1 ч. 11 м.
Битрейт : 2440 Кбит/сек
Ширина : 720 пикселей
Высота : 400 пикселей
Соотношение сторон : 16:9
Частота кадров : 23,976 (24000/1001) кадра/сек
Цветовое пространство : YUV
Субдискретизация насыщенности : 4:2:0
Битовая глубина : 8 бит
Тип развёртки : Прогрессивная
Метод сжатия : С потерями
Бит/(Пиксели*Кадры) : 0.353
Размер потока : 1,23 Гбайт (84%)
Библиотека кодирования : XviD 73

Аудио
Идентификатор : 1
Формат : AC-3
Формат/Информация : Audio Coding 3
Коммерческое название : Dolby Digital
Идентификатор кодека : 2000
Продолжительность : 1 ч. 11 м.
Вид битрейта : Постоянный
Битрейт : 448 Кбит/сек
Каналы : 6 каналов
Channel layout : L R C LFE Ls Rs
Частота : 48,0 КГц
Частота кадров : 31,250 кадров/сек (1536 SPF)
Битовая глубина : 16 бит
Метод сжатия : С потерями
Размер потока : 231 Мбайт (15%)
Выравнивание : Разделение по промежуткам
Продолжительность промежутка : 42 мс. (1,00 видеокадр)
Время предзагрузки промежутка : 500 мс.
ServiceKind/String : Complete Main










   Похожие торренты   Торрент   Размер 
В этой теме нет новых непрочитанных сообщений. Время монстров / The Head Hunter (Джордан Дауни) [2018, ужасы, фэнтези, WEBDLRip] MVO

28 | 0

1.37 ГБ

В этой теме нет новых непрочитанных сообщений. Время монстров / The Head Hunter (Джордан Дауни) [2018, ужасы, фэнтези, WEBDLRip] AVO

19 | 1

1.46 ГБ

В этой теме нет новых непрочитанных сообщений. Время монстров / The Head Hunter (Джордан Дауни) [2018, ужасы, фэнтези, BDRip] DUB

764 | 23

1.09 ГБ

В этой теме нет новых непрочитанных сообщений. Охотник за сокровищами: Легенда Белой ведьмы / Treasure Hunter: Legend of the White Witch / Antidote (Кен Барбет) [2018, боевик, приключения, ужасы, WEBDLRip] MVO

49 | 9

1.37 ГБ

В этой теме нет новых непрочитанных сообщений. В объятиях лжи / Greta (Нил Джордан) [2018, триллер, детектив, драма, ужасы, WEBDLRip] DUB

44 | 0

1.37 ГБ

В этой теме нет новых непрочитанных сообщений. Охотник за головами / The Bounty Hunter (2010) HDRip | КПК | D

61 | 10

579.11 МБ

В этой теме нет новых непрочитанных сообщений. Охотник за головами / The Bounty Hunter (2010) HDRip | A

34 | 11

1.45 ГБ




Вы не можете начинать темы
Вы не можете отвечать на сообщения
Вы не можете редактировать свои сообщения
Вы не можете удалять свои сообщения
Вы не можете добавлять вложения

Перейти:  
 Вход
ppkBB3cker v.2 © 2008-2014 @ PPK
[ Time : 0.024s | 18 Queries | GZIP : Off ]

cron