img image001 image001 image001 image001 image001 image001 image001 image001 image001 image001 image001 image001 image001 image001 image001 image001

Planets Sun Sun Sun
Статистика раздачи
Автор: Снежана | Размер: 431.85 МБ | Добавлен: 15 апр 2019
Раздают: 5    Качают: 0
Скачать торрент
Скачать торрент
Описание торрента

СообщениеДобавлено: 15 апр 2019 

Омеги / The Omegans


Перевод: Авторский (Трамвай-фильм), субтитры: отсутствуют
Формат: TVRip-AVC, MKV, H.264, AAC
Страна: США,Филиппины
Режиссер: В. Ли Вайлдер
Жанр: фантастика, драма
Продолжительность: 01:26:17
Год выпуска: 1968
В ролях: Кейт Ларсен, Ингрид Питт, Люсьен Пэн, Бруно Пазалан

Описание: Группа ученых, изучающая мистическую Чёрную реку объединяет свои усилия с художником, который ищет вдохновения в диких джунглях. В скором времени ученые открывают, что суеверия туземцев о проклятии вод Чёрной реки имеют вполне весомые основания, а художник открывает, что его жена-натурщица изменяет ему с местным гидом



Видео: 400x304 (4:3), 29.970 fps, MPEG4 AVC (x264) ~440 Kbps avg, 0.121 bit/pixel
Аудио #1: Английский: 44.1 kHz, AAC LC, 2 ch, ~128 Kbps avg (оригинал)
Аудио #2: Русский: 44.1 kHz, AAC LC, 2 ch, ~128 Kbps avg (Авторский перевод)

Доп. информация: Очень редкий фильм, снятый для телевидения, увы так никогда и не вышедший на DVD / VHS.

Complete name : the.omegans.mkv
Format : Matroska
Format version : Version 4 / Version 2
File size : 432 MiB
Duration : 1 h 26 min
Overall bit rate : 700 kb/s
Encoded date : UTC 2015-06-06 09:47:32
Writing application : mkvmerge v7.8.0 (''River Man'') 32bit built on Mar 27 2015 16:18:02
Writing library : libebml v1.3.1 + libmatroska v1.4.2

Video
ID : 1
Format : AVC
Format/Info : Advanced Video Codec
Format profile :
Format settings : CABAC / 3 Ref Frames
Format settings, CABAC : Yes
Format settings, ReFrames : 3 frames
Format settings, GOP : M=1, N=30
Codec ID : V_MPEG4/ISO/AVC
Duration : 1 h 26 min
Bit rate : 440 kb/s
Width : 400 pixels
Height : 304 pixels
Display aspect ratio : 4:3
Frame rate mode : Constant
Frame rate : 29.970 (29970/1000) FPS
Color space : YUV
Chroma subsampling : 4:2:0
Bit depth : 8 bits
Scan type : Progressive
Bits/(Pixel*Frame) : 0.121
Stream size : 272 MiB (63%)
Default : Yes
Forced : No

Audio #1
ID : 2
Format : AAC
Format/Info : Advanced Audio Codec
Format profile : LC
Codec ID : A_AAC-2
Duration : 1 h 26 min
Bit rate : 128 kb/s
Channel(s) : 2 channels
Channel positions : Front: L R
Sampling rate : 44.1 kHz
Frame rate : 43.066 FPS (1024 SPF)
Compression mode : Lossy
Stream size : 79.0 MiB (18%)
Title : Оригинал
Language : English
Default : No
Forced : No

Audio #2
ID : 3
Format : AAC
Format/Info : Advanced Audio Codec
Format profile : LC
Codec ID : A_AAC-2
Duration : 1 h 26 min
Bit rate : 128 kb/s
Channel(s) : 2 channels
Channel positions : Front: L R
Sampling rate : 44.1 kHz
Frame rate : 43.066 FPS (1024 SPF)
Compression mode : Lossy
Stream size : 79.0 MiB (18%)
Title : Перевод
Language : Russian
Default : Yes
Forced : Yes









   Похожие торренты   Торрент   Размер 
В этой теме нет новых непрочитанных сообщений. Планета Ка-Пэкс / K-PAX (Иэн Софтли) [2001, фантастика, драма, HDRip-AVC] 2xMVO / Фантастика

17 | 0

2.9 ГБ

В этой теме нет новых непрочитанных сообщений. Фонтан / The Fountain (Даррен Аронофски) [2006, фантастика, драма, LowHDRip] MVO / Фантастика

2 | 0

742.14 МБ

В этой теме нет новых непрочитанных сообщений. Местный / Native (Даниэль Фицсиммонс) [2016, фантастика, драма, WEBDLRip] MVO / Фантастика

3 | 0

1.36 ГБ

В этой теме нет новых непрочитанных сообщений. Пробуждение / Awaken (Дэрик Лу) [2012, фантастика, драма, мелодрама, WEBDLRip-AVC] MVO / Фантастика

4 | 1

1.5 ГБ

В этой теме нет новых непрочитанных сообщений. Сингулярность / Singularity (Роберт Коуба) [2017, фантастика, драма, BDRip] DUB / Фантастика

31 | 2

1.42 ГБ

В этой теме нет новых непрочитанных сообщений. Угли / Embers (Клэр Карре) [2015, фантастика, драма, WEBDLRip] VO / Фантастика

4 | 0

1.46 ГБ

В этой теме нет новых непрочитанных сообщений. Сингулярность / Singularity (Роберт Коуба ) [2017 , фантастика, драма , BDRip-AVC] DUB / Фантастика

9 | 0

1.45 ГБ




Вы не можете начинать темы
Вы не можете отвечать на сообщения
Вы не можете редактировать свои сообщения
Вы не можете удалять свои сообщения
Вы не можете добавлять вложения

Перейти:  
 Вход
ppkBB3cker v.2 © 2008-2014 @ PPK
[ Time : 0.033s | 15 Queries | GZIP : Off ]

cron