img image001 image001 image001 image001 image001 image001 image001 image001 image001 image001 image001 image001 image001 image001 image001 image001

Planets Sun Sun Sun
Статистика раздачи
Автор: Снежана | Размер: 1.46 ГБ | Добавлен: 15 апр 2019
Раздают: 6    Качают: 0
Скачать торрент
Скачать торрент
Описание торрента

СообщениеДобавлено: 15 апр 2019 

30 дней ночи / 30 Days of Night


Перевод: Профессиональный (полное дублирование), субтитры: отсутствуют
Формат: HDRip-AVC, MKV, H.264, AC3
Страна: США
Режиссер: Дэвид Слэйд
Жанр: ужасы, триллер
Продолжительность: 01:32:26
Год выпуска: 2007
В ролях: Джош Хартнетт, Мелисса Джордж, Дэнни Хьюстон, Бен Фостер, Марк Бун Джуниор, Марк Рендалл, Эмбер Сейнсбури, Ману Беннетт

Описание: Каждый год на 30 дней маленький город Бэрроу на Аляске погружается во тьму. Арктическая ночь — вещь вполне нормальная для этих мест. Но вот однажды, шериф городка Олсон начинает подозревать, что на этот раз тридцатидневный сумрак не пройдёт так гладко. Вампиры подготавливают кровавый рейд на Бэрроу…



Видео: 1024x432 (2.40:1), 23.976 fps, AVC MPEG4 (x264), , ~1397 kbps avg, 0.132 bit/pixel
Аудио: 48 kHz, AC3 Dolby Digital, 3/2 (L,C,R,l,r) + LFE ch, ~448 kbps
General
Unique ID : 15807919917929376734781376399186032183 (0xBE47EA0420607608D627A4CEA137637)
Complete name : C:\Users\123\Desktop\30 дней ночи.2006_[tfile.ru].mkv
Format : Matroska
Format version : Version 4 / Version 2
File size : 1.46 GiB
Duration : 1h 53mn
Overall bit rate mode : Constant
Overall bit rate : 1 845 Kbps
Encoded date : UTC 2018-03-17 17:12:02
Writing application : Lavf56.36.100
Writing library : Lavf56.36.100

Video
ID : 2
Format : AVC
Format/Info : Advanced Video Codec
Format profile :
Format settings, CABAC : Yes
Format settings, ReFrames : 2 frames
Format settings, GOP : M=1, N=25
Codec ID : V_MPEG4/ISO/AVC
Duration : 1h 53mn
Bit rate mode : Constant
Bit rate : 1 397 Kbps
Width : 1 024 pixels
Height : 432 pixels
Display aspect ratio : 2.40:1
Frame rate mode : Constant
Frame rate : 23.976 fps
Color space : YUV
Chroma subsampling : 4:2:0
Bit depth : 8 bits
Scan type : Progressive
Bits/(Pixel*Frame) : 0.132
Stream size : 1.07 GiB (74%)
Language : English
Default : Yes
Forced : No

Audio
ID : 1
Format : AC-3
Format/Info : Audio Coding 3
Mode extension : CM (complete main)
Format settings, Endianness : Big
Codec ID : A_AC3
Duration : 1h 53mn
Bit rate mode : Constant
Bit rate : 448 Kbps
Channel(s) : 6 channels
Channel positions : Front: L C R, Side: L R, LFE
Sampling rate : 48.0 KHz
Bit depth : 32 bits
Compression mode : Lossy
Stream size : 362 MiB (24%)
Title : Полное дублирование
Language : Russian
Default : Yes
Forced : No











   Похожие торренты   Торрент   Размер 
В этой теме нет новых непрочитанных сообщений. 30 дней ночи: Темные дни / 30 Days of Night: Dark Days (Бен Кетаи) [2010, ужасы, триллер, HDRip-AVC] MVO / Мистика

7 | 2

1.46 ГБ

В этой теме нет новых непрочитанных сообщений. Глубина / Below (Дэвид Туи ) [2002, боевик, ужасы, триллер, детектив , HDRip-AVC] DUB / Мистика

18 | 2

1.46 ГБ

В этой теме нет новых непрочитанных сообщений. Конец света / End of Days (Питер Хайамс) [1999, ужасы, фэнтези, боевик, триллер, HDRip-AVC] MVO / Мистика

17 | 2

2.19 ГБ

В этой теме нет новых непрочитанных сообщений. Хэллоуин / Halloween (Дэвид Гордон Грин ) [2018, ужасы, триллер , BDRip] DUB / Мистика

6 | 6

1.46 ГБ

В этой теме нет новых непрочитанных сообщений. Ритуал / The Ritual (Дэвид Брукнер) [2017, ужасы, триллер, детектив, WEB-DLRip] MVO / Мистика

17 | 3

1.46 ГБ

В этой теме нет новых непрочитанных сообщений. Одна под покровом ночи / Alone in the Dead of Night (Мэттью Кастано / Matty Castano) [2017, ужасы, WEBRip-AVC] VO / Мистика

6 | 0

877.46 МБ

В этой теме нет новых непрочитанных сообщений. Против ночи / Against the Night (Брайан Кавалларо) [2017, ужасы, триллер, детектив, WEBDLRip] MVO

4 | 0

1.37 ГБ




Вы не можете начинать темы
Вы не можете отвечать на сообщения
Вы не можете редактировать свои сообщения
Вы не можете удалять свои сообщения
Вы не можете добавлять вложения

Перейти:  
 Вход
ppkBB3cker v.2 © 2008-2014 @ PPK
[ Time : 0.023s | 15 Queries | GZIP : Off ]

cron