img image001 image001 image001 image001 image001 image001 image001 image001 image001 image001 image001 image001 image001 image001 image001 image001

Planets Sun Sun Sun
Статистика раздачи
Автор: Снежана | Размер: 1.46 ГБ | Добавлен: 15 апр 2019
Раздают: 59    Качают: 6
Скачать торрент
Скачать торрент
Описание торрента

СообщениеДобавлено: 15 апр 2019 

Клаустрофобы / Escape Room


Перевод: Профессиональный (полное дублирование) iTunes, субтитры: отсутствуют
Формат: HDRip-AVC, MKV, H.264, AC3
Страна: США, Канада
Режиссер: Адам Робител
Жанр: триллер
Продолжительность: 01:39:37
Год выпуска: 2019
В ролях: Тейлор Расселл, Логан Миллер, Джей Эллис, Тайлер Лабин, Дебора Энн Уолл, Ник Додани, Йорик ван Вагенинген, Корнелиус Джини мл., Рассел Кроус, Барт Фаш

Описание: Получив от таинственной организации приглашение сыграть в квест, победитель которого получит солидную сумму, шестеро незнакомых между собой людей решают попытать удачу. Но совсем скоро им становится понятно, что их выбрали для игры не случайно, задания не такие безобидные, и им грозит вполне реальная опасность, а ставка в игре - их собственные жизни.



Видео: 1024x432 (2.40:1), 23.976 fps, AVC MPEG4 (x264), , ~1718 kbps avg, 0.162 bit/pixel
Аудио: 48 kHz, AC3 Dolby Digital, 3/2 (L,C,R,l,r) + LFE ch, ~384 kbps
General
Unique ID : 185933852103685471277296262259473797321 (0x8BE18EAE1B9E99FB9B0D6E5D6CDE50C9)
Complete name : C:\Users\123\Desktop\Escape.Room.2019.HDRip-AVC_[tfile.ru].mkv
Format : Matroska
Format version : Version 4 / Version 2
File size : 1.46 GiB
Duration : 1h 39mn
Overall bit rate mode : Constant
Overall bit rate : 2 102 Kbps
Movie name : Escape Room 2019 from селезень
Encoded date : UTC 2019-04-12 10:11:39
Writing application : Lavf56.36.100
Writing library : Lavf56.36.100

Video
ID : 2
Format : AVC
Format/Info : Advanced Video Codec
Format profile :
Format settings, CABAC : Yes
Format settings, ReFrames : 2 frames
Format settings, GOP : M=1, N=25
Codec ID : V_MPEG4/ISO/AVC
Duration : 1h 39mn
Bit rate mode : Constant
Bit rate : 1 718 Kbps
Width : 1 024 pixels
Height : 432 pixels
Display aspect ratio : 2.40:1
Frame rate mode : Constant
Frame rate : 23.976 fps
Color space : YUV
Chroma subsampling : 4:2:0
Bit depth : 8 bits
Scan type : Progressive
Bits/(Pixel*Frame) : 0.162
Stream size : 1.17 GiB (80%)
Title : MTeam
Language : English
Default : Yes
Forced : No
DURATION : 01:39:37.972000000
NUMBER_OF_FRAMES : 143328
NUMBER_OF_BYTES : 2944078078
_STATISTICS_WRITING_APP : mkvmerge v32.0.0 (''Astral Progressions'') 64-bit
_STATISTICS_WRITING_DATE_UTC : 2019-04-12 10:11:39
_STATISTICS_TAGS : BPS DURATION NUMBER_OF_FRAMES NUMBER_OF_BYTES

Audio
ID : 1
Format : AC-3
Format/Info : Audio Coding 3
Mode extension : CM (complete main)
Format settings, Endianness : Big
Codec ID : A_AC3
Duration : 1h 39mn
Bit rate mode : Constant
Bit rate : 384 Kbps
Channel(s) : 6 channels
Channel positions : Front: L C R, Side: L R, LFE
Sampling rate : 48.0 KHz
Bit depth : 32 bits
Compression mode : Lossy
Stream size : 274 MiB (18%)
Title : iTunes
Language : Russian
Default : Yes
Forced : No
DURATION : 01:39:37.056000000
NUMBER_OF_FRAMES : 186783
NUMBER_OF_BYTES : 286898688
_STATISTICS_WRITING_APP : mkvmerge v32.0.0 (''Astral Progressions'') 64-bit
_STATISTICS_WRITING_DATE_UTC : 2019-04-12 10:11:39
_STATISTICS_TAGS : BPS DURATION NUMBER_OF_FRAMES NUMBER_OF_BYTES












   Похожие торренты   Торрент   Размер 
В этой теме нет новых непрочитанных сообщений. Клаустрофобы / Escape Room (Адам Робител) [2019, триллер, WEBDLRip] DUB

125 | 0

1.37 ГБ

В этой теме нет новых непрочитанных сообщений. Клаустрофобы / Escape Room (Адам Робител) [2019, триллер, WEBDLRip] DUB

303 | 8

1.46 ГБ

В этой теме нет новых непрочитанных сообщений. Астрал 4: Последний ключ / Insidious: The Last Key (Адам Робител) [2018, ужасы, триллер, детектив, HDRip-AVC] DUB

138 | 1

2.03 ГБ

В этой теме нет новых непрочитанных сообщений. Астрал 4: Последний ключ / Insidious: The Last Key (Адам Робител) [2018, ужасы, триллер, детектив, HDRip] DUB

2 | 2

1.46 ГБ

В этой теме нет новых непрочитанных сообщений. Астрал 4: Последний ключ / Insidious: The Last Key (Адам Робител) [2018, Ужасы, триллер, детектив, WEB-DLRip] DUB

49 | 2

1.36 ГБ

В этой теме нет новых непрочитанных сообщений. Астрал 4: Последний ключ / Insidious: The Last Key (Адам Робител) [2018, ужасы, триллер, детектив, WEB-DLRip] DUB

201 | 4

1.46 ГБ

В этой теме нет новых непрочитанных сообщений. Квест. Игра начинается / Escape Room (Питер Дьюкс) [2017, триллер, ужасы, детектив, HDRip] DUB

43 | 2

1.37 ГБ




Вы не можете начинать темы
Вы не можете отвечать на сообщения
Вы не можете редактировать свои сообщения
Вы не можете удалять свои сообщения
Вы не можете добавлять вложения

Перейти:  
 Вход
ppkBB3cker v.2 © 2008-2014 @ PPK
[ Time : 0.038s | 15 Queries | GZIP : Off ]

cron