img image001 image001 image001 image001 image001 image001 image001 image001 image001 image001 image001 image001 image001 image001 image001

Planets Sun Sun Sun
Статистика раздачи
Автор: Снежана | Размер: 1.46 ГБ | Добавлен: 15 апр 2019
Раздают: 1    Качают: 0
Скачать торрент
Скачать торрент
Описание торрента

СообщениеДобавлено: 15 апр 2019 

30 дней ночи: Темные дни / 30 Days of Night: Dark Days


Перевод: Профессиональный (многоголосый закадровый), субтитры: отсутствуют
Формат: HDRip-AVC, MKV, H.264, AC3
Страна: США
Режиссер: Бен Кетаи
Жанр: ужасы, триллер
Продолжительность: 01:32:26
Год выпуска: 2010

В ролях: Киле Санчез, Рис Койро, Диора Бэрд, Хэролд Перрино, Миа Киршнер, Трой Раптэш, Бен Коттон, Кэти Китинг, Кэтрин Изабель, Джеймс Пиццинато, Питер Холл, Стивен Хусар, Марко Сориано, Джексон Берлин, Джон ДеСантис, Евгения Иванова, Стэйси Рой, Джоди Томпсон, Аарон Харрисон, Сара-Джейн Редмонд, Ричард Стро, Донован Серминара, Скотт Пате, Карен Элизабет Остин, Моник Гэндертон

Описание: Уцелевшая в кровавой бойне в Барлоу Стелла Олман возвращается в Лос-Анджелес на поиски Лилит — вампира, инициировавшего нападение на сонный городок и ответственного за смерть шерифа Эбена.



Видео: 1024x560 (1.85:1), 23.976 fps, AVC MPEG4 (x264), , ~1872 kbps avg, 0.136 bit/pixel
Аудио: 48 kHz, AC3 Dolby Digital, 3/2 (L,C,R,l,r) + LFE ch, ~384 kbps
General
Unique ID : 108634992538294569984480416617238346067 (0x51BA56A8D6C817D9EF359DD7E6AFB953)
Complete name : C:\Users\123\Desktop\30.dney.nochi.temnye.dni.2010.HDRip-AVC_[tfile.ru].mkv
Format : Matroska
Format version : Version 4 / Version 2
File size : 1.46 GiB
Duration : 1h 32mn
Overall bit rate mode : Constant
Overall bit rate : 2 256 Kbps
Movie name : avproh
Encoded date : UTC 2011-07-11 12:12:36
Writing application : Lavf56.36.100
Writing library : Lavf56.36.100

Video
ID : 2
Format : AVC
Format/Info : Advanced Video Codec
Format profile :
Format settings, CABAC : Yes
Format settings, ReFrames : 2 frames
Format settings, GOP : M=1, N=25
Codec ID : V_MPEG4/ISO/AVC
Duration : 1h 32mn
Bit rate mode : Constant
Bit rate : 1 872 Kbps
Width : 1 024 pixels
Height : 560 pixels
Display aspect ratio : 1.85:1
Frame rate mode : Constant
Frame rate : 23.976 fps
Color space : YUV
Chroma subsampling : 4:2:0
Bit depth : 8 bits
Scan type : Progressive
Bits/(Pixel*Frame) : 0.136
Stream size : 1.18 GiB (81%)
Title : twiz-darkdays-720p
Language : English
Default : Yes
Forced : No

Audio
ID : 1
Format : AC-3
Format/Info : Audio Coding 3
Mode extension : CM (complete main)
Format settings, Endianness : Big
Codec ID : A_AC3
Duration : 1h 32mn
Bit rate mode : Constant
Bit rate : 384 Kbps
Channel(s) : 6 channels
Channel positions : Front: L C R, Side: L R, LFE
Sampling rate : 48.0 KHz
Bit depth : 32 bits
Compression mode : Lossy
Stream size : 254 MiB (17%)
Language : Russian
Default : Yes
Forced : No











   Похожие торренты   Торрент   Размер 
В этой теме нет новых непрочитанных сообщений. 30 дней ночи / 30 Days of Night (Дэвид Слэйд) [2007, ужасы, триллер, HDRip-AVC] DUB / Мистика

1 | 0

1.46 ГБ

В этой теме нет новых непрочитанных сообщений. Конец света / End of Days (Питер Хайамс) [1999, ужасы, фэнтези, боевик, триллер, HDRip-AVC] MVO / Мистика

17 | 2

2.19 ГБ

В этой теме нет новых непрочитанных сообщений. 30 дней ночи / 30 Days of Night (2007) BDRip-AVC | D, P, A

117 | 11

3.46 ГБ

В этой теме нет новых непрочитанных сообщений. 30 дней ночи / 30 Days of Night (2007) BDRip-AVC | D, P, A

12 | 1

5.3 ГБ

В этой теме нет новых непрочитанных сообщений. 30 дней ночи / 30 Days of Night (2007) BDRip 1080p | D, Р, А

3 | 0

18.96 ГБ

В этой теме нет новых непрочитанных сообщений. Мрачные небеса / Dark Skies (Скотт Чарльз Стюарт) [2013, ужасы, фантастика, триллер, HDRip-AVC] DUB / Мистика

0 | 0

2.19 ГБ

В этой теме нет новых непрочитанных сообщений. 6 дней темноты / 6 Days Dark (Миона Божович) [2014, ужасы, WEBRip-AVC] AVO

8 | 0

855.74 МБ




Вы не можете начинать темы
Вы не можете отвечать на сообщения
Вы не можете редактировать свои сообщения
Вы не можете удалять свои сообщения
Вы не можете добавлять вложения

Перейти:  
 Вход
ppkBB3cker v.2 © 2008-2014 @ PPK
[ Time : 0.025s | 15 Queries | GZIP : Off ]

cron