img image001 image001 image001 image001 image001 image001 image001 image001 image001 image001 image001 image001 image001 image001 image001

Planets Sun Sun Sun
Статистика раздачи
Автор: Снежана | Размер: 1.46 ГБ | Добавлен: 15 апр 2019
Раздают: 3    Качают: 0
Скачать торрент
Скачать торрент
Описание торрента

СообщениеДобавлено: 15 апр 2019 

Тим Талер, или Проданный смех / Timm Thaler oder das verkaufte Lachen


Перевод: Профессиональный (полное дублирование) iTunes, субтитры: отсутствуют
Формат: HDRip-AVC, MKV, H.264, AC3
Страна: Германия
Режиссер: Андреас Дрезен
Жанр: фэнтези, драма, комедия, приключения, семейный
Продолжительность: 01:42:28
Год выпуска: 2017
В ролях: Арвед Фризе, Юстус фон Донаньи, Аксель Праль, Андреас Шмидт, Жюль Херман, Чарли Хюбнер, Харальд Шмидт, Надя Уль, Фритци Хаберландт, Бьярне Медел

Описание: Мальчик по имени Тим Талер больше всего на свете любил смеяться, и смех у него был жутко заразительным. Однажды на скачках Тим знакомится со странным господином, который предлагает мальчику интересную сделку: Тим продаёт ему свой смех и теперь будет выигрывать любые пари.



Видео: 1024x432 (2.40:1), 23.976 fps, AVC MPEG4 (x264), , ~1658 kbps avg, 0.156 bit/pixel
Аудио: 48 kHz, AC3 Dolby Digital, 3/2 (L,C,R,l,r) + LFE ch, ~384 kbps
General
Unique ID : 18647191404097416424217897542322642843 (0xE075184A762DA66C290E913EA325F9B)
Complete name : C:\Users\123\Desktop\Тим Талер или проданный смех.2017.HDRip-AVC_[tfile.ru].mkv
Format : Matroska
Format version : Version 4 / Version 2
File size : 1.46 GiB
Duration : 1h 42mn
Overall bit rate mode : Constant
Overall bit rate : 2 042 Kbps
Encoded date : UTC 2019-04-15 06:27:19
Writing application : Lavf56.36.100
Writing library : Lavf56.36.100

Video
ID : 2
Format : AVC
Format/Info : Advanced Video Codec
Format profile :
Format settings, CABAC : Yes
Format settings, ReFrames : 2 frames
Format settings, GOP : M=1, N=25
Codec ID : V_MPEG4/ISO/AVC
Duration : 1h 42mn
Bit rate mode : Constant
Bit rate : 1 658 Kbps
Width : 1 024 pixels
Height : 432 pixels
Display aspect ratio : 2.40:1
Frame rate mode : Constant
Frame rate : 24.000 fps
Color space : YUV
Chroma subsampling : 4:2:0
Bit depth : 8 bits
Scan type : Progressive
Bits/(Pixel*Frame) : 0.156
Stream size : 1.16 GiB (79%)
Default : Yes
Forced : No
DURATION : 01:42:28.084000000
NUMBER_OF_FRAMES : 147554
NUMBER_OF_BYTES : 3529673263
_STATISTICS_WRITING_APP : mkvmerge v8.3.0 (''Over the Horizon'') 64bit
_STATISTICS_WRITING_DATE_UTC : 2019-04-15 06:27:19
_STATISTICS_TAGS : BPS DURATION NUMBER_OF_FRAMES NUMBER_OF_BYTES

Audio
ID : 1
Format : AC-3
Format/Info : Audio Coding 3
Mode extension : CM (complete main)
Format settings, Endianness : Big
Codec ID : A_AC3
Duration : 1h 42mn
Bit rate mode : Constant
Bit rate : 384 Kbps
Channel(s) : 6 channels
Channel positions : Front: L C R, Side: L R, LFE
Sampling rate : 48.0 KHz
Bit depth : 32 bits
Compression mode : Lossy
Stream size : 281 MiB (19%)
Title : Дублированный | iTunes
Language : Russian
Default : Yes
Forced : No
DURATION : 01:42:25.504000000
NUMBER_OF_FRAMES : 192047
NUMBER_OF_BYTES : 294984192
_STATISTICS_WRITING_APP : mkvmerge v8.3.0 (''Over the Horizon'') 64bit
_STATISTICS_WRITING_DATE_UTC : 2019-04-15 06:27:19
_STATISTICS_TAGS : BPS DURATION NUMBER_OF_FRAMES NUMBER_OF_BYTES










   Похожие торренты   Торрент   Размер 
В этой теме нет новых непрочитанных сообщений. Капитан Саблезуб и сокровища Лама Рама / Kaptein Sabeltann og skatten i Lama Rama (Йон Андреас Андерсен, Лиза Мари Гамлем) [2014, боевик, драма, комедия, приключения, семейный, HDRip-AVC] MVO / Приключения

9 | 1

1.46 ГБ

В этой теме нет новых непрочитанных сообщений. Собачья жизнь / A Dog's Purpose (Лассе Халльстрём) [2017, фэнтези, драма, комедия, приключения, семейный, BDRip] 2хDUB (rus, ukr)+AVO / Детское

22 | 6

2.19 ГБ

В этой теме нет новых непрочитанных сообщений. Кристофер Робин / Christopher Robin (Марк Форстер) [2018, приключения, семейный, мультфильм, фэнтези, комедия, мюзикл, драма, HDRip] DUB

17 | 6

1.37 ГБ

В этой теме нет новых непрочитанных сообщений. Собачья жизнь 2 / A Dog's Journey (Гейл Манкусо) [2019, драма, приключения, фэнтези, семейный, комедия, TeleSynch] MVO

116 | 7

1.37 ГБ

В этой теме нет новых непрочитанных сообщений. Смурфики: Затерянная деревня / Smurfs: The Lost Village (Келли Эсбёри) [2017, Мультфильм, фэнтези, комедия, приключения, семейный, HDRip] DUB

38 | 0

1.46 ГБ

В этой теме нет новых непрочитанных сообщений. Тайна Коко / Coco (Эдриан Молина, Ли Анкрич) [2017, мультфильм, фэнтези, комедия, детектив, приключения, семейный, HDRip] DUB [Line]

31 | 10

1.37 ГБ

В этой теме нет новых непрочитанных сообщений. Собачья жизнь / A Dog's Purpose (Лассе Халльстрём) [2017, семейный, комедия, драма, приключения, HDRip] DUB

600 | 6

1.4 ГБ




Вы не можете начинать темы
Вы не можете отвечать на сообщения
Вы не можете редактировать свои сообщения
Вы не можете удалять свои сообщения
Вы не можете добавлять вложения

Перейти:  
 Вход
ppkBB3cker v.2 © 2008-2014 @ PPK
[ Time : 0.043s | 18 Queries | GZIP : Off ]

cron