img image001 image001 image001 image001 image001 image001 image001 image001 image001 image001 image001 image001 image001 image001 image001 image001

Planets Sun Sun Sun
Статистика раздачи
Автор: Снежана | Размер: 1.37 ГБ | Добавлен: 17 апр 2019
Раздают: 7    Качают: 2
Скачать торрент
Скачать торрент
Описание торрента

СообщениеДобавлено: 17 апр 2019 

Карма / Karma


Перевод: Профессиональный (многоголосый закадровый) HDRezka Studio, субтитры: отсутствуют
Формат: WEBDLRip-AVC, MKV, H.264, AC3
Страна: США
Режиссер: Ник Саймон
Жанр: ужасы
Продолжительность: 01:26:04
Год выпуска: 2018
В ролях: Мандела Ван Пиблз, Бритни Сарпи, Каноа Гу, Сандра Цеваллос, Тим Расс, Мег Деуснер, Тони Амендола, А. Тодд Бейкер, Сара Морган, Арлин Балуют

Описание: Когда семейный бюджет начинает обрастать долгами, Мэнни решает устроиться на работу к отцу своей жены. Дело не для слабонервных - нужно выселять должников из их домов. После того, как очередным из них оказывается его одноклассник, у которого умирает мать, Мэнни предстает перед нелегким выбором. Сразу после этого происходят пугающие события, и герой понимает, что ни к чему хорошему это не приведет...



Видео: 1024x576 (16:9), 23.976 fps, AVC MPEG4 (x264), , ~2105 kbps avg, 0.149 bit/pixel
Аудио: 48 kHz, AC3 Dolby Digital, 2 (L,R) ch, ~192.00 kbps avg
General
Unique ID : 69840569880935483392391058941181504036 (0x348ACDF2D6BCBF8DD5C8A0811B5D2A24)
Complete name : C:\Users\123\Desktop\Karma.2018_[tfile.ru].mkv
Format : Matroska
Format version : Version 4 / Version 2
File size : 1.37 GiB
Duration : 1h 25mn
Overall bit rate mode : Constant
Overall bit rate : 2 297 Kbps
Encoded date : UTC 2019-04-12 15:38:27
Writing application : Lavf56.36.100
Writing library : Lavf56.36.100

Video
ID : 2
Format : AVC
Format/Info : Advanced Video Codec
Format profile :
Format settings, CABAC : Yes
Format settings, ReFrames : 2 frames
Format settings, GOP : M=1, N=25
Codec ID : V_MPEG4/ISO/AVC
Duration : 1h 25mn
Bit rate mode : Constant
Bit rate : 2 105 Kbps
Width : 1 024 pixels
Height : 576 pixels
Display aspect ratio : 16:9
Frame rate mode : Constant
Frame rate : 23.976 fps
Color space : YUV
Chroma subsampling : 4:2:0
Bit depth : 8 bits
Scan type : Progressive
Bits/(Pixel*Frame) : 0.149
Stream size : 1.23 GiB (90%)
Language : English
Default : Yes
Forced : No
DURATION : 01:25:34.676000000
NUMBER_OF_FRAMES : 123110
NUMBER_OF_BYTES : 3326287412
_STATISTICS_WRITING_APP : mkvmerge v31.0.0 (''Dolores In A Shoestand'') 64-bit
_STATISTICS_WRITING_DATE_UTC : 2019-04-12 15:38:27
_STATISTICS_TAGS : BPS DURATION NUMBER_OF_FRAMES NUMBER_OF_BYTES

Audio
ID : 1
Format : AC-3
Format/Info : Audio Coding 3
Mode extension : CM (complete main)
Format settings, Endianness : Big
Codec ID : A_AC3
Duration : 1h 25mn
Bit rate mode : Constant
Bit rate : 192 Kbps
Channel(s) : 2 channels
Channel positions : Front: L R
Sampling rate : 48.0 KHz
Bit depth : 32 bits
Compression mode : Lossy
Stream size : 118 MiB (8%)
Title : Русский
Language : Russian
Default : Yes
Forced : No
DURATION : 01:25:34.752000000
NUMBER_OF_FRAMES : 160461
NUMBER_OF_BYTES : 123234048
_STATISTICS_WRITING_APP : mkvmerge v31.0.0 (''Dolores In A Shoestand'') 64-bit
_STATISTICS_WRITING_DATE_UTC : 2019-04-12 15:38:27
_STATISTICS_TAGS : BPS DURATION NUMBER_OF_FRAMES NUMBER_OF_BYTES










   Похожие торренты   Торрент   Размер 
В этой теме нет новых непрочитанных сообщений. Карма / Karma (Ник Саймон) [2018, ужасы, WEBDLRip] MVO / Мистика

31 | 1

1.37 ГБ

В этой теме нет новых непрочитанных сообщений. Смотрительница / Charlotte Wakes (Саймон Ричардсон) [2017, ужасы, WEBDLRip] MVO / Мистика

6 | 0

1.3 ГБ

В этой теме нет новых непрочитанных сообщений. Дьяволица / Люциферина / Luciferina (Гонсало Кальзада / Gonzalo Calzada) [2018, ужасы, мистика, WEBDLRip-AVC] VO / Мистика

52 | 7

1.57 ГБ

В этой теме нет новых непрочитанных сообщений. Кампус / The Campus (Дж. Хортон) [2018, ужасы, WEBDLRip] MVO / Мистика

3 | 0

1.36 ГБ

В этой теме нет новых непрочитанных сообщений. Аксиома / The Axiom (Николас Вудс) [2018, ужасы, WEBDLRip] MVO / Мистика

319 | 7

1.37 ГБ

В этой теме нет новых непрочитанных сообщений. Аксиома / The Axiom (Николас Вудс) [2018, ужасы, WEBDLRip] MVO / Мистика

52 | 0

1.37 ГБ

В этой теме нет новых непрочитанных сообщений. Голем: Начало / The Golem (Дорон Пас, Йоав Пас ) [2018, ужасы, WEBDLRip] MVO / Мистика

11 | 0

1.37 ГБ




Вы не можете начинать темы
Вы не можете отвечать на сообщения
Вы не можете редактировать свои сообщения
Вы не можете удалять свои сообщения
Вы не можете добавлять вложения

Перейти:  
 Вход
ppkBB3cker v.2 © 2008-2014 @ PPK
[ Time : 0.037s | 15 Queries | GZIP : Off ]

cron