img image001 image001 image001 image001 image001 image001 image001 image001 image001 image001 image001 image001 image001 image001 image001

Planets Sun Sun Sun
Статистика раздачи
Автор: Снежана | Размер: 1.46 ГБ | Добавлен: 13 май 2019
Раздают: 5    Качают: 0
Скачать торрент
Скачать торрент
Описание торрента

СообщениеДобавлено: 13 май 2019 

Останься со мной / The Keeping Hours


Перевод: Профессиональный (полное дублирование) НД Плэй, субтитры: отсутствуют
Формат: WEBDLRip, MKV, H.264, AC3
Страна: США
Режиссер: Карен Монкрифф
Жанр: драма, мелодрама, фэнтези
Продолжительность: 01:34:53
Год выпуска: 2017
В ролях: Кристина Видаль, Ли Пейс, Джейн Дэйли, Клифф Чемберлен, Рэй Бэйкер, Эми Смарт, Кэрри Кун, Анна Диоп, Ана Ортис, Молли Хэйгэн

Описание: Десять лет назад, в семье адвоката произошла трагедия, которая в корне изменила их жизнь, в автомобильной аварии погиб их единственный сын Джейкоб. И вот спустя десять лет, благодаря череде мистических событий, к ним приходит призрак мертвого сына. У разведенных супругов, не сумевших забить страшную трагедию, появился шанс искупить вину, обрести прощение и начать новую жизнь.



Видео: 1024x432 (2.40:1), 23.976 fps, AVC MPEG4 (x264), , ~1822 kbps avg, 0.172 bit/pixel
Аудио: 48 kHz, AC3 Dolby Digital, 3/2 (L,C,R,l,r) + LFE ch, ~384 kbps
General
Unique ID : 334588559943585713208635972115713224235 (0xFBB769A4610AA6297CD1AB0F5A03EE2B)
Complete name : C:\Users\123\Desktop\The.Keeping.Hours.2017.WEB-DLRip-AVC_[tfile.ru].mkv
Format : Matroska
Format version : Version 4 / Version 2
File size : 1.46 GiB
Duration : 1h 34mn
Overall bit rate mode : Constant
Overall bit rate : 2 206 Kbps
Encoded date : UTC 2019-05-12 14:35:12
Writing application : Lavf56.36.100
Writing library : Lavf56.36.100

Video
ID : 2
Format : AVC
Format/Info : Advanced Video Codec
Format profile :
Format settings, CABAC : Yes
Format settings, ReFrames : 2 frames
Format settings, GOP : M=1, N=25
Codec ID : V_MPEG4/ISO/AVC
Duration : 1h 34mn
Bit rate mode : Constant
Bit rate : 1 822 Kbps
Width : 1 024 pixels
Height : 432 pixels
Display aspect ratio : 2.40:1
Frame rate mode : Constant
Frame rate : 23.976 fps
Color space : YUV
Chroma subsampling : 4:2:0
Bit depth : 8 bits
Scan type : Progressive
Bits/(Pixel*Frame) : 0.172
Stream size : 1.18 GiB (81%)
Language : English
Default : Yes
Forced : No
DURATION : 01:34:52.395000000
NUMBER_OF_FRAMES : 136481
NUMBER_OF_BYTES : 2244366636
_STATISTICS_WRITING_APP : mkvmerge v7.1.0 (''Good Love'') 64bit built on Jul 27 2014 13:06:55
_STATISTICS_WRITING_DATE_UTC : 2019-05-12 14:35:12
_STATISTICS_TAGS : BPS DURATION NUMBER_OF_FRAMES NUMBER_OF_BYTES

Audio
ID : 1
Format : AC-3
Format/Info : Audio Coding 3
Mode extension : CM (complete main)
Format settings, Endianness : Big
Codec ID : A_AC3
Duration : 1h 34mn
Bit rate mode : Constant
Bit rate : 384 Kbps
Channel(s) : 6 channels
Channel positions : Front: L C R, Side: L R, LFE
Sampling rate : 48.0 KHz
Bit depth : 32 bits
Compression mode : Lossy
Stream size : 261 MiB (17%)
Title : Dub R5
Language : Russian
Default : Yes
Forced : No
DURATION : 01:34:53.408000000
NUMBER_OF_FRAMES : 177919
NUMBER_OF_BYTES : 273283584
_STATISTICS_WRITING_APP : mkvmerge v7.1.0 (''Good Love'') 64bit built on Jul 27 2014 13:06:55
_STATISTICS_WRITING_DATE_UTC : 2019-05-12 14:35:12
_STATISTICS_TAGS : BPS DURATION NUMBER_OF_FRAMES NUMBER_OF_BYTES










   Похожие торренты   Торрент   Размер 
В этой теме нет новых непрочитанных сообщений. Останься со мной / The Keeping Hours (Карен Монкрифф) [2017, ужасы, триллер, драма, мелодрама, WEBDLRip] MVO / Мистика

1 | 5

1.29 ГБ

В этой теме нет новых непрочитанных сообщений. Останься со мной / The Keeping Hours (Карен Монкрифф) [2017, драма, триллер, ужасы, мелодрама, DVDRip] DUB

58 | 7

1.46 ГБ

В этой теме нет новых непрочитанных сообщений. Лепестки на ветру / Petals on the Wind (Карен Монкрифф) [2014, драма, ужасы, триллер, мелодрама, WEBDLRip] MVO

3 | 0

1.37 ГБ

В этой теме нет новых непрочитанных сообщений. Останься со мной / The Keeping Hours (Роб Маллиган) [2017,Мистика, драма, WEBRip] АVO

15 | 0

1016.8 МБ

В этой теме нет новых непрочитанных сообщений. Побег из сумасшедшего дома: История Нелли Блай / Escaping the Madhouse: The Nellie Bly Story (Карен Монкрифф) [2019, триллер, WEBDLRip] MVO

45 | 0

1.33 ГБ

В этой теме нет новых непрочитанных сообщений. Мертвая девочка / The Dead Girl (Карен Монкрифф) [2006, триллер, драма, криминал, детектив, HDRip] MVO

12 | 0

1.47 ГБ

В этой теме нет новых непрочитанных сообщений. Муза / Muse (Джон Дж. Барр IV) [2017, фантастика, триллер, ужасы, фэнтези, мелодрама, драма, WEBDLRip] MVO

4 | 0

1.37 ГБ




Вы не можете начинать темы
Вы не можете отвечать на сообщения
Вы не можете редактировать свои сообщения
Вы не можете удалять свои сообщения
Вы не можете добавлять вложения

Перейти:  
 Вход
ppkBB3cker v.2 © 2008-2014 @ PPK
[ Time : 0.039s | 17 Queries | GZIP : Off ]

cron