img image001 image001 image001 image001 image001 image001 image001 image001 image001 image001 image001 image001 image001 image001 image001 image001

Planets Sun Sun Sun
Статистика раздачи
Автор: Снежана | Размер: 1.46 ГБ | Добавлен: 14 май 2019
Раздают: 13    Качают: 0
Скачать торрент
Скачать торрент
Описание торрента

СообщениеДобавлено: 14 май 2019 

Солнцестояние / Solstice


Перевод: Профессиональный (полное дублирование), субтитры: отсутствуют
Формат: HDRip-AVC, MKV, H.264, AC3
Страна: США
Режиссер: Дэниэл Мирик
Жанр: ужасы, триллер, драма
Продолжительность: 01:27:03
Год выпуска: 2008
В ролях: Элизабет Арнуа, Шон Эшмор, Хилари Бертон, Аманда Сэйфрид, Тайлер Хёхлин, Мэтью О’Лири, Р. Ли Эрми, Лиза Арнольд, Лайл Брокато, Дэвид Дальгрен

Описание: После того, как Меган при таинственных обстоятельствах теряет свою сестру-близняшку, она с друзьями отправляется в родительский дом у озера, чтобы немного отвлечься и понаблюдать за летним солнцестоянием, традиционным местным явлением.
Говорят, что во время солнцестояния живым легче всего входить в контакт с умершими. Заинтригованная сей новостью, Меган воодушевляется снова услышать голос сестры. Экспериментируя с местными заклинаниями, она вызывает дух совершенно другой девушки, в смерти которой, скорее всего, виновата её сестра…




Видео: 1024x432 (2.40:1), 25 fps, AVC MPEG4 (x264), , ~1953 kbps avg, 0.177 bit/pixel
Аудио: 48 kHz, AC3 Dolby Digital, 3/2 (L,C,R,l,r) + LFE ch, ~448 kbps
General
Unique ID : 313261856474966058070870070685943053990 (0xEBAC09FAB88D100D892FFD1D20B5BEA6)
Complete name : C:\Users\123\Desktop\Solncestoyanie.2008.x264.HDRip.(AVC)_[tfile.ru].mkv
Format : Matroska
Format version : Version 4 / Version 2
File size : 1.46 GiB
Duration : 1h 27mn
Overall bit rate mode : Constant
Overall bit rate : 2 401 Kbps
Movie name : Solstice (2008)
Encoded date : UTC 2013-02-14 05:25:01
Writing application : Lavf56.36.100
Writing library : Lavf56.36.100

Video
ID : 2
Format : AVC
Format/Info : Advanced Video Codec
Format profile :
Format settings, CABAC : Yes
Format settings, ReFrames : 2 frames
Format settings, GOP : M=1, N=25
Codec ID : V_MPEG4/ISO/AVC
Duration : 1h 27mn
Bit rate mode : Constant
Bit rate : 1 953 Kbps
Width : 1 024 pixels
Height : 432 pixels
Display aspect ratio : 2.40:1
Frame rate mode : Constant
Frame rate : 25.000 fps
Color space : YUV
Chroma subsampling : 4:2:0
Bit depth : 8 bits
Scan type : Progressive
Bits/(Pixel*Frame) : 0.177
Stream size : 1.16 GiB (79%)
Title : Solstice (2008)
Language : English
Default : Yes
Forced : No

Audio
ID : 1
Format : AC-3
Format/Info : Audio Coding 3
Mode extension : CM (complete main)
Format settings, Endianness : Big
Codec ID : A_AC3
Duration : 1h 27mn
Bit rate mode : Constant
Bit rate : 448 Kbps
Channel(s) : 6 channels
Channel positions : Front: L C R, Side: L R, LFE
Sampling rate : 48.0 KHz
Bit depth : 32 bits
Compression mode : Lossy
Stream size : 279 MiB (19%)
Title : Dub
Language : Russian
Default : Yes
Forced : No










   Похожие торренты   Торрент   Размер 
В этой теме нет новых непрочитанных сообщений. Шатл / Маршрутка / Shuttle (Эдвард Андерсон) [2008, ужасы, триллер, драма, HDRip] MVO / Мистика

5 | 0

2.07 ГБ

В этой теме нет новых непрочитанных сообщений. Эхо / The Echo (Ям Ларанас) [2008, ужасы, триллер, драма, детектив, BDRip] MVO / Мистика

38 | 0

1.46 ГБ

В этой теме нет новых непрочитанных сообщений. Незнакомцы / The Strangers (Брайан Бертино) [2008, ужасы, психологический триллер, драма, BDRip-AVC] DUB / Мистика

10 | 1

1.46 ГБ

В этой теме нет новых непрочитанных сообщений. Фантомы / Phantoms (Джо Чаппелль) [1998, ужасы, триллер, драма, HDRip-AVC] MVO / Мистика

12 | 1

1.46 ГБ

В этой теме нет новых непрочитанных сообщений. Сомния / Before I Wake (Майк Флэнеган) [2016, ужасы, мистика, триллер, драма, детектив, BDRip] DUB / Мистика

24 | 0

2.1 ГБ

В этой теме нет новых непрочитанных сообщений. Замёрзшие / Frozen (Адам Грин ) [2010, ужасы, триллер, драма , HDRip] DUB+MVO (ukr) / Мистика

4 | 0

2.18 ГБ

В этой теме нет новых непрочитанных сообщений. Чужеродный / Alienate (Майкл Шамвэй) [2016, ужасы, фантастика, триллер, драма, HDRip-AVC] VO / Мистика

1 | 0

1.46 ГБ




Вы не можете начинать темы
Вы не можете отвечать на сообщения
Вы не можете редактировать свои сообщения
Вы не можете удалять свои сообщения
Вы не можете добавлять вложения

Перейти:  
 Вход
ppkBB3cker v.2 © 2008-2014 @ PPK
[ Time : 0.028s | 15 Queries | GZIP : Off ]

cron