img image001 image001 image001 image001 image001 image001 image001 image001 image001 image001 image001 image001 image001 image001 image001 image001

Planets Sun Sun Sun
Статистика раздачи
Автор: Снежана | Размер: 2.15 ГБ | Добавлен: 10 июн 2019
Раздают: 2    Качают: 0
Скачать торрент
Скачать торрент
Описание торрента

СообщениеДобавлено: 10 июн 2019 

Семейные тайны / Семейные секреты / Familjehemligheter / Family Secrets


Перевод: Любительский одноголосый (Andi999)
Субтитры: русские (Елена Володина), английские, шведские
Формат: DVDRip-AVC, MKV, H.264, AC3
Страна: Швеция, Норвегия
Режиссер: Челл-Оке Андерссон
Жанр: драма
Продолжительность: 01:38:50
Год выпуска: 2001

В ролях: Рольф Лассгорд, Мария Лундквист, Эрик Йоханссон, Эмма Энгстрем, Лайнус Норд, Матс Бломгрен, Ребека Остергрен, Дженни Харрисон, Сиселла Кайл, Клас Хартелиус

Описание: Почти обычная шведская семья, у которой все, как полагается: собственный уютный дом, две машины. Однако в один прекрасный осенний день все идет наперекосяк: мать спустя 20 лет начинается встречаться со своим первым любовником, пятнадцатилетняя дочка находит собственную первую любовь, а ее братья-подростки начинают брать уроки сексуальной жизни. А в это время младший сын, самый чувствительный из всех, наблюдает за тем, как семейное благополучие в его семье неизбежно приближается к катастрофе…


Видео: 720x576@1024x576 (16:9), 25 fps, MPEG-4 AVC (x264) ~2215 kbps avg, 0.214 bit/pixel
Аудио #1: Русский: 48 kHz, AC3 Dolby Digital, 3/2 (L,C,R,l,r) + LFE ch, ~448 kbps avg [Любительский одноголосый]
Аудио #2: Шведский: 48 kHz, AC3 Dolby Digital, 3/2 (L,C,R,l,r) + LFE ch, ~448 kbps avg [Оригинал]

Общее
Уникальный идентификатор : 180582892217589240058015258843065673384 (0x87DAFFFD27B6D77D9CEA8299F844E6A8)
Полное имя : Familjehemligheter.2001.DVDRip.mkv
Формат : Matroska
Версия формата : Version 4 / Version 2
Размер файла : 2,15 Гбайт
Продолжительность : 1 ч. 38 м.
Общий поток : 3113 Кбит/сек
Дата кодирования : UTC 2019-05-30 15:58:19
Программа кодирования : mkvmerge v7.9.0 (''Birds'') 64bit
Библиотека кодирования : libebml v1.3.1 + libmatroska v1.4.2 / Lavf58.20.100

Видео
Идентификатор : 1
Формат : AVC
Формат/Информация : Advanced Video Codec
Профиль формата : High@L4
Параметр CABAC формата : Да
Параметр ReFrames формата : 7 кадров
Идентификатор кодека : V_MPEG4/ISO/AVC
Продолжительность : 1 ч. 38 м.
Битрейт : 2215 Кбит/сек
Ширина : 720 пикселей
Высота : 576 пикселей
Соотношение сторон : 16:9
Режим частоты кадров : Постоянный
Частота кадров : 25,000 кадров/сек
Стандарт вещания : PAL
Цветовое пространство : YUV
Субдискретизация насыщенности : 4:2:0
Битовая глубина : 8 бит
Тип развёртки : Прогрессивная
Бит/(Пиксели*Кадры) : 0.214
Размер потока : 1,49 Гбайт (69%)
Библиотека кодирования : x264 core 157 r2935 545de2f
Настройки программы : cabac=1 / ref=7 / deblock=1:-3:-3 / analyse=0x3:0x113 / me=umh / subme=9 / psy=1 / psy_rd=1.00:0.00 / mixed_ref=1 / me_range=24 / chroma_me=1 / trellis=1 / 8x8dct=1 / cqm=0 / deadzone=21,11 / fast_pskip=1 / chroma_qp_offset=-2 / threads=6 / lookahead_threads=1 / sliced_threads=0 / nr=0 / decimate=1 / interlaced=0 / bluray_compat=0 / constrained_intra=0 / bframes=7 / b_pyramid=2 / b_adapt=1 / b_bias=0 / direct=1 / weightb=1 / open_gop=0 / weightp=2 / keyint=250 / keyint_min=25 / scenecut=40 / intra_refresh=0 / rc_lookahead=30 / rc=2pass / mbtree=1 / bitrate=2215 / ratetol=1.0 / qcomp=0.60 / qpmin=0 / qpmax=69 / qpstep=4 / cplxblur=20.0 / qblur=0.5 / vbv_maxrate=20000 / vbv_bufsize=25000 / nal_hrd=none / filler=0 / ip_ratio=1.40 / aq=1:1.00
Default : Да
Forced : Нет
Цветовой диапазон : Limited
Основные цвета : BT.601 PAL
Характеристики трансфера : BT.709
Коэффициенты матрицы : BT.601
DURATION : 01:38:50.925000000

Аудио #1
Идентификатор : 2
Формат : AC-3
Формат/Информация : Audio Coding 3
Расширение режима : CM (complete main)
Параметр Endianness формата : Big
Идентификатор кодека : A_AC3
Продолжительность : 1 ч. 38 м.
Вид битрейта : Постоянный
Битрейт : 448 Кбит/сек
Каналы : 6 каналов
Расположение каналов : Front: L C R, Side: L R, LFE
Частота : 48,0 КГц
Частота кадров : 31,250 кадров/сек (1536 spf)
Метод сжатия : С потерями
Задержка видео : -5 мс.
Размер потока : 317 Мбайт (14%)
Язык : Russian
Default : Да
Forced : Нет
DURATION : 01:38:50.912000000

Аудио #2
Идентификатор : 3
Формат : AC-3
Формат/Информация : Audio Coding 3
Расширение режима : CM (complete main)
Параметр Endianness формата : Big
Идентификатор кодека : A_AC3
Продолжительность : 1 ч. 38 м.
Вид битрейта : Постоянный
Битрейт : 448 Кбит/сек
Каналы : 6 каналов
Расположение каналов : Front: L C R, Side: L R, LFE
Частота : 48,0 КГц
Частота кадров : 31,250 кадров/сек (1536 spf)
Метод сжатия : С потерями
Задержка видео : -5 мс.
Размер потока : 317 Мбайт (14%)
Язык : Swedish
Default : Нет
Forced : Нет
DURATION : 01:38:50.912000000

Текст #1
Идентификатор : 4
Формат : UTF-8
Идентификатор кодека : S_TEXT/UTF8
Идентификатор кодека/Информация : UTF-8 Plain Text
Язык : Russian
Default : Да
Forced : Нет

Текст #2
Идентификатор : 5
Формат : UTF-8
Идентификатор кодека : S_TEXT/UTF8
Идентификатор кодека/Информация : UTF-8 Plain Text
Язык : English
Default : Нет
Forced : Нет

Текст #3
Идентификатор : 6
Формат : UTF-8
Идентификатор кодека : S_TEXT/UTF8
Идентификатор кодека/Информация : UTF-8 Plain Text
Язык : Swedish
Default : Нет
Forced : Нет











   Похожие торренты   Торрент   Размер 
В этой теме нет новых непрочитанных сообщений. Семейные ценности / It Runs in the Family (2003) DVDRip | P

59 | 16

1.37 ГБ

В этой теме нет новых непрочитанных сообщений. Семейные драмы [3 выпуска] (2014) SATRip от Files-x

2 | 2

8.1 ГБ

В этой теме нет новых непрочитанных сообщений. Семейные драмы [3 выпуска] (2014) SATRip от Files-x

1 | 3

9.26 ГБ

В этой теме нет новых непрочитанных сообщений. Семейные драмы [3 выпуска] (2014) SATRip от Files-x

4 | 2

1.73 ГБ

В этой теме нет новых непрочитанных сообщений. Семейные драмы [3 выпуска] (2014) SATRip от Files-x

5 | 4

6.37 ГБ

В этой теме нет новых непрочитанных сообщений. Семейные драмы [3 выпуска] (2014) SATRip от Files-x

1 | 3

8.68 ГБ

В этой теме нет новых непрочитанных сообщений. Семейные драмы [10 выпусков] (2014) SATRip от Files-x

12 | 6

5.79 ГБ




Вы не можете начинать темы
Вы не можете отвечать на сообщения
Вы не можете редактировать свои сообщения
Вы не можете удалять свои сообщения
Вы не можете добавлять вложения

Перейти:  
 Вход
ppkBB3cker v.2 © 2008-2014 @ PPK
[ Time : 0.541s | 16 Queries | GZIP : Off ]

cron