img image001 image001 image001 image001 image001 image001 image001 image001 image001 image001 image001 image001 image001 image001 image001 image001

Planets Sun Sun Sun
Статистика раздачи
Автор: Снежана | Размер: 2.19 ГБ | Добавлен: 10 июн 2019
Раздают: 9    Качают: 2
Скачать торрент
Скачать торрент
Описание торрента

СообщениеДобавлено: 10 июн 2019 

Мёбиус / Mobius


Перевод: Профессиональный (полное дублирование), субтитры: отсутствуют
Формат: HDRip-AVC, MKV, H.264, AC3
Страна: Франция, Бельгия, Люксембург
Режиссер: Эрик Рошан
Жанр: триллер, драма
Продолжительность: 01:48:13
Год выпуска: 2013
В ролях: Жан Дюжарден, Сесиль Де Франс, Тим Рот, Эмили Декьенн, Владимир Меньшов, Алексей Горбунов, Бранка Катич, Максим Виторган, Эрик Вьеллар

Описание: Жестокий и хладнокровный офицер с мрачным характером и проницательным умом, тайный агент ФСБ по кличке Моисей, ведет дело крупного российского олигарха, которого подозревают в фантастических финансовых махинациях. Кажется, он уже наступил на хвост змеи, но тут в его жизнь врывается страсть. Он, никогда в жизни не знавший нежных чувств, влюбляется в Алису, работающую трейдером в банковской структуре преступного олигарха. Что будет утром, когда окончится горячая любовная ночь?



Видео: 1024x432 (2.40:1), 23.976 fps, AVC MPEG4 (x264), , ~2060 kbps avg, 0.194 bit/pixel
Аудио #1: Русский:48 kHz, AC3 Dolby Digital, 3/2 (L,C,R,l,r) + LFE ch, ~384 kbps [Профессиональный (полное дублирование)]
Аудио #2: Французский:48 kHz, AC3 Dolby Digital, 3/2 (L,C,R,l,r) + LFE ch, ~448 kbps [Оригинал]
General
Unique ID : 67183198537508189593304080828147030950 (0x328B036D05E7B28247D330F4AF79DBA6)
Complete name : C:\Users\123\Desktop\Мёбиус (2013. Mobius)_[tfile.ru].mkv
Format : Matroska
Format version : Version 4 / Version 2
File size : 2.19 GiB
Duration : 1h 48mn
Overall bit rate mode : Constant
Overall bit rate : 2 894 Kbps
Movie name : Release for RuTracker
Encoded date : UTC 2019-06-06 03:51:11
Writing application : Lavf56.36.100
Writing library : Lavf56.36.100

Video
ID : 3
Format : AVC
Format/Info : Advanced Video Codec
Format profile :
Format settings, CABAC : Yes
Format settings, ReFrames : 2 frames
Format settings, GOP : M=1, N=25
Codec ID : V_MPEG4/ISO/AVC
Duration : 1h 48mn
Bit rate mode : Constant
Bit rate : 2 060 Kbps
Width : 1 024 pixels
Height : 432 pixels
Display aspect ratio : 2.40:1
Frame rate mode : Constant
Frame rate : 23.976 fps
Color space : YUV
Chroma subsampling : 4:2:0
Bit depth : 8 bits
Scan type : Progressive
Bits/(Pixel*Frame) : 0.194
Stream size : 1.52 GiB (69%)
Title : Mobius.2013.720p.BluRay.x264.DTS-HDWinG
Language : French
Default : Yes
Forced : No
DURATION : 01:48:13.042000000
NUMBER_OF_FRAMES : 155833
NUMBER_OF_BYTES : 6083492078
_STATISTICS_WRITING_APP : mkvmerge v7.4.0 (''Circles'') 64bit built on Dec 12 2014 12:19:56
_STATISTICS_WRITING_DATE_UTC : 2019-06-06 03:51:11
_STATISTICS_TAGS : BPS DURATION NUMBER_OF_FRAMES NUMBER_OF_BYTES

Audio #1
ID : 1
Format : AC-3
Format/Info : Audio Coding 3
Mode extension : CM (complete main)
Format settings, Endianness : Big
Codec ID : A_AC3
Duration : 1h 48mn
Bit rate mode : Constant
Bit rate : 384 Kbps
Channel(s) : 6 channels
Channel positions : Front: L C R, Side: L R, LFE
Sampling rate : 48.0 KHz
Bit depth : 32 bits
Compression mode : Lossy
Stream size : 297 MiB (13%)
Title : Дубляж
Language : Russian
Default : Yes
Forced : No
DURATION : 01:48:13.024000000
NUMBER_OF_FRAMES : 202907
NUMBER_OF_BYTES : 311665152
_STATISTICS_WRITING_APP : mkvmerge v7.4.0 (''Circles'') 64bit built on Dec 12 2014 12:19:56
_STATISTICS_WRITING_DATE_UTC : 2019-06-06 03:51:11
_STATISTICS_TAGS : BPS DURATION NUMBER_OF_FRAMES NUMBER_OF_BYTES

Audio #2
ID : 2
Format : AC-3
Format/Info : Audio Coding 3
Mode extension : CM (complete main)
Format settings, Endianness : Big
Codec ID : A_AC3
Duration : 1h 48mn
Bit rate mode : Constant
Bit rate : 448 Kbps
Channel(s) : 6 channels
Channel positions : Front: L C R, Side: L R, LFE
Sampling rate : 48.0 KHz
Bit depth : 32 bits
Compression mode : Lossy
Stream size : 347 MiB (15%)
Default : Yes
Forced : No
DURATION : 01:48:13.088000000
NUMBER_OF_FRAMES : 202909
NUMBER_OF_BYTES : 363612928
_STATISTICS_WRITING_APP : mkvmerge v7.4.0 (''Circles'') 64bit built on Dec 12 2014 12:19:56
_STATISTICS_WRITING_DATE_UTC : 2019-06-06 03:51:11
_STATISTICS_TAGS : BPS DURATION NUMBER_OF_FRAMES NUMBER_OF_BYTES










   Похожие торренты   Торрент   Размер 
В этой теме нет новых непрочитанных сообщений. Мёбиус / Mobius (Эрик Рошан) [2013, триллер, драма, HDRip-AVC] DUB

2 | 0

1.45 ГБ

В этой теме нет новых непрочитанных сообщений. Мёбиус / Mobius (Эрик Рошан) [2013, триллер, драма, LowHDRip] DUB

0 | 0

744.47 МБ

В этой теме нет новых непрочитанных сообщений. Бюро легенд, 3 сезон 1-10 серии из 10 / Le Bureau des Lеgendes (Элье Систерн, Матье Деми, Эрик Рошан) [2017, драма, HDTVRip, SUB]

18 | 0

4.6 ГБ

В этой теме нет новых непрочитанных сообщений. Мёбиус / Möbius (1993) SATRip | P2

46 | 7

1.15 ГБ

В этой теме нет новых непрочитанных сообщений. Джози / Josie ( Эрик Инглэнд) [2017, триллер, драма, WEBDLRip-AVC] MVO

7 | 0

2.04 ГБ

В этой теме нет новых непрочитанных сообщений. Джози / Josie (Эрик Инглэнд) [2018, триллер, драма, BDRip] MVO

77 | 6

1.46 ГБ

В этой теме нет новых непрочитанных сообщений. Давно потерянный / Long Lost (Эрик С. Блумквист) [2018, триллер, драма, детектив, WEBDLRip] MVO

18 | 0

1.46 ГБ




Вы не можете начинать темы
Вы не можете отвечать на сообщения
Вы не можете редактировать свои сообщения
Вы не можете удалять свои сообщения
Вы не можете добавлять вложения

Перейти:  
 Вход
ppkBB3cker v.2 © 2008-2014 @ PPK
[ Time : 0.079s | 18 Queries | GZIP : Off ]

cron