img image001 image001 image001 image001 image001 image001 image001 image001 image001 image001 image001 image001 image001 image001 image001

Planets Sun Sun Sun

COVID-19 - Последняя информация о коронавирусе на сайте Минздрава


Статистика раздачи
Автор: Снежана | Размер: 1.46 ГБ | Добавлен: 15 июн 2019
Раздают: 13    Качают: 0
Скачать торрент
Скачать торрент
Описание торрента

СообщениеДобавлено: 15 июн 2019 

Дитя робота / I Am Mother


Перевод: Профессиональный (многоголосый закадровый) СВ-Студия, субтитры: отсутствуют
Формат: WEBDLRip-AVC, MKV, H.264, AC3
Страна: Австралия
Режиссер: Грант Спьютор
Жанр: фантастика, триллер
Продолжительность: 01:53:41
Год выпуска: 2019
В ролях: Роуз Бирн, Хилари Суэнк, Клара Ругор, Люк Хокер, Тейлия Стурзэйкер, Джейкоб Нолан, Хэйзел Сэндери, Саммер Лентон, Мэдди Лентон

Описание: После глобального катаклизма человечество вымирает. В подземном бункере автоматически активизируется аварийная программа, и робот-гуманоид «Мать» выращивает из эмбриона человеческого ребенка. Девушка, воспитанная под бережным присмотром «Матери», никогда не видела ни поверхности Земли, ни других людей. Но однажды ее мир переворачивается, когда на пороге убежища появляется женщина с просьбой о помощи...



Видео: 1024x432 (2.40:1), 24 fps, AVC MPEG4 (x264), , ~1458 kbps avg, 0.137 bit/pixel
Аудио: 48 kHz, AC3 Dolby Digital, 3/2 (L,C,R,l,r) + LFE ch, ~384 kbps
General
Unique ID : 170114860117093264109196469838187880468 (0x7FFAEE28B23DD2CB8EEF76FF41D86014)
Complete name : C:\Users\123\Desktop\I.Am.Mother.2019.1080p.WEB-DLRip_[tfile.ru].mkv
Format : Matroska
Format version : Version 4 / Version 2
File size : 1.46 GiB
Duration : 1h 53mn
Overall bit rate mode : Constant
Overall bit rate : 1 842 Kbps
Encoded date : UTC 2019-06-11 10:09:35
Writing application : Lavf56.36.100
Writing library : Lavf56.36.100

Video
ID : 2
Format : AVC
Format/Info : Advanced Video Codec
Format profile :
Format settings, CABAC : Yes
Format settings, ReFrames : 2 frames
Format settings, GOP : M=1, N=25
Codec ID : V_MPEG4/ISO/AVC
Duration : 1h 53mn
Bit rate mode : Constant
Bit rate : 1 458 Kbps
Width : 1 024 pixels
Height : 432 pixels
Display aspect ratio : 2.40:1
Frame rate mode : Constant
Frame rate : 24.000 fps
Color space : YUV
Chroma subsampling : 4:2:0
Bit depth : 8 bits
Scan type : Progressive
Bits/(Pixel*Frame) : 0.137
Stream size : 1.13 GiB (77%)
Default : Yes
Forced : No
DURATION : 01:53:32.334000000
NUMBER_OF_FRAMES : 163496
NUMBER_OF_BYTES : 4897469298
_STATISTICS_WRITING_APP : mkvmerge v7.4.0 (''Circles'') 64bit built on Dec 12 2014 12:19:56
_STATISTICS_WRITING_DATE_UTC : 2019-06-11 10:09:35
_STATISTICS_TAGS : BPS DURATION NUMBER_OF_FRAMES NUMBER_OF_BYTES

Audio
ID : 1
Format : AC-3
Format/Info : Audio Coding 3
Mode extension : CM (complete main)
Format settings, Endianness : Big
Codec ID : A_AC3
Duration : 1h 53mn
Bit rate mode : Constant
Bit rate : 384 Kbps
Channel(s) : 6 channels
Channel positions : Front: L C R, Side: L R, LFE
Sampling rate : 48.0 KHz
Bit depth : 32 bits
Compression mode : Lossy
Stream size : 312 MiB (21%)
Default : Yes
Forced : No
DURATION : 01:53:41.568000000
NUMBER_OF_FRAMES : 213174
NUMBER_OF_BYTES : 327435264
_STATISTICS_WRITING_APP : mkvmerge v7.4.0 (''Circles'') 64bit built on Dec 12 2014 12:19:56
_STATISTICS_WRITING_DATE_UTC : 2019-06-11 10:09:35
_STATISTICS_TAGS : BPS DURATION NUMBER_OF_FRAMES NUMBER_OF_BYTES










   Похожие торренты   Торрент   Размер 
В этой теме нет новых непрочитанных сообщений. Дитя робота / I Am Mother (Грант Спьютор ) [2019, ужасы, фантастика, триллер, драма, WEBDLRip] DUB

14 | 0

1.46 ГБ

В этой теме нет новых непрочитанных сообщений. Дитя робота / I Am Mother (Грант Спьютор) [2019, ужасы, фантастика, триллер, драма, BDRip-AVC] DUB / Фантастика

5 | 2

2.18 ГБ

В этой теме нет новых непрочитанных сообщений. Дитя робота / I Am Mother (Грант Спьютор) [2019, фантастика, триллер, WEB-DLRip] DVO

8 | 0

1.37 ГБ

В этой теме нет новых непрочитанных сообщений. Экскурсия / Excursion (Мартин Гроф) [2019, фантастика, триллер, детектив , WEBDLRip-AVC] MVO

3 | 0

1.46 ГБ

В этой теме нет новых непрочитанных сообщений. Гибрид / Crossbreed (Брэндон Слэгли) [2019, фантастика, боевик, триллер, WEBDLRip] MVO / Фантастика

3 | 0

1.37 ГБ

В этой теме нет новых непрочитанных сообщений. Сквозь пепел / Through the Ashes (Майкл Фредианелли) [2019, фантастика, боевик, триллер, приключения, WEBDLRip] MVO / Фантастика

2 | 0

1.37 ГБ

В этой теме нет новых непрочитанных сообщений. Алита: Боевой ангел / Alita: Battle Angel (Роберт Родригес ) [2019, фантастика, боевик, триллер, мелодрама, приключения , WEBDLRip] MVO / Фантастика

3 | 0

1.46 ГБ




Вы не можете начинать темы
Вы не можете отвечать на сообщения
Вы не можете редактировать свои сообщения
Вы не можете удалять свои сообщения
Вы не можете добавлять вложения

Перейти:  
Контактная информация: rstracker[пёсик]yandex.ru
 Вход
ppkBB3cker v.2 © 2008-2014 @ PPK
[ Time : 0.018s | 15 Queries | GZIP : Off ]

cron