img image001 image001 image001 image001 image001 image001 image001 image001 image001 image001 image001 image001 image001 image001 image001

Planets Sun Sun Sun
Статистика раздачи
Автор: Снежана | Размер: 1.46 ГБ | Добавлен: 24 июн 2019
Раздают: 3    Качают: 0
Скачать торрент
Скачать торрент
Описание торрента

СообщениеДобавлено: 24 июн 2019 

Астрал: Новое измерение / Astral


Перевод: Профессиональный (полное дублирование) iTunes, субтитры: отсутствуют
Формат: WEBDLRip-AVC, MKV, H.264, AC3
Страна: Великобритания
Режиссер: Крис Мул
Жанр: ужасы, фантастика, триллер, драма
Продолжительность: 01:20:16
Год выпуска: 2018
В ролях: Фрэнк Диллэйн, Катрин Стэдмен, Ванесса Грасс, Демсон Идрис, Тревор Уайт, Дарвин Шоу, Нед Портеус, Марк Аикен, Джульетт Хоуланд, Дженнифер Брук, Дауд Шах

Описание: Когда Алекс был маленьким, его мать, только выйдя из психиатрической клиники, повесилась у себя дома. Студентом парень изучает астральное тело и пытается практиковать астральную проекцию, чтобы связаться с погибшей матерью.



Видео: 1024x432 (2.40:1), 25 fps, AVC MPEG4 (x264), , ~2224 kbps avg, 0.201 bit/pixel
Аудио: 48 kHz, AC3 Dolby Digital, 3/2 (L,C,R,l,r) + LFE ch, ~384 kbps
General
Unique ID : 64754981695130485211350350260071081672 (0x30B75B17A436210F54B34FC7250CA6C8)
Complete name : C:\Users\123\Desktop\Astral.2018.WEB-DLRip_AVC_[tfile.ru].mkv
Format : Matroska
Format version : Version 4 / Version 2
File size : 1.46 GiB
Duration : 1h 20mn
Overall bit rate mode : Constant
Overall bit rate : 2 608 Kbps
Movie name : ELEKTRI4KA.UNIONGANG
Encoded date : UTC 2019-02-22 09:36:15
Writing application : Lavf56.36.100
Writing library : Lavf56.36.100

Video
ID : 2
Format : AVC
Format/Info : Advanced Video Codec
Format profile :
Format settings, CABAC : Yes
Format settings, ReFrames : 2 frames
Format settings, GOP : M=1, N=25
Codec ID : V_MPEG4/ISO/AVC
Duration : 1h 20mn
Bit rate mode : Constant
Bit rate : 2 224 Kbps
Width : 1 024 pixels
Height : 432 pixels
Display aspect ratio : 2.40:1
Frame rate mode : Constant
Frame rate : 25.000 fps
Color space : YUV
Chroma subsampling : 4:2:0
Bit depth : 8 bits
Scan type : Progressive
Bits/(Pixel*Frame) : 0.201
Stream size : 1.22 GiB (83%)
Title : ELEKTRI4KA.UNIONGANG
Language : English
Default : Yes
Forced : No

Audio
ID : 1
Format : AC-3
Format/Info : Audio Coding 3
Mode extension : CM (complete main)
Format settings, Endianness : Big
Codec ID : A_AC3
Duration : 1h 20mn
Bit rate mode : Constant
Bit rate : 384 Kbps
Channel(s) : 6 channels
Channel positions : Front: L C R, Side: L R, LFE
Sampling rate : 48.0 KHz
Bit depth : 32 bits
Compression mode : Lossy
Stream size : 220 MiB (15%)
Language : Russian
Default : Yes
Forced : No








   Похожие торренты   Торрент   Размер 
В этой теме нет новых непрочитанных сообщений. Астрал: Новое измерение / Astral (Крис Мул) [2018, драма, триллер, фантастика, ужасы, WEBDLRip] DUB

63 | 2

1.37 ГБ

В этой теме нет новых непрочитанных сообщений. Иные / Freaks (Зак Липовски, Адам Б. Стейн) [2018, фантастика, триллер, драма, WEBDLRip-AVC] DUB / Фантастика

31 | 0

1.46 ГБ

В этой теме нет новых непрочитанных сообщений. Дитя робота / I Am Mother (Грант Спьютор) [2019, ужасы, фантастика, триллер, драма, BDRip-AVC] DUB / Фантастика

25 | 4

2.18 ГБ

В этой теме нет новых непрочитанных сообщений. Солнцестояние / Midsommar (Ари Астер) [2019, ужасы, триллер, драма, HDRip-AVC] DUB / Мистика

30 | 0

1.46 ГБ

В этой теме нет новых непрочитанных сообщений. Птичий короб / Bird Box (Сюзанна Бир) [2018, ужасы, фантастика, триллер, драма , WEBDLRip] DVO

8 | 0

1.45 ГБ

В этой теме нет новых непрочитанных сообщений. Пароль: Хаус / H0us3 (Маноло Мунгуйя) [2019, фантастика, триллер, ужасы, WEBDLRip] DUB

50 | 0

1.46 ГБ

В этой теме нет новых непрочитанных сообщений. Безумие / Frenzy (Хосе Монтесинос) [2018, ужасы, фантастика, боевик, триллер, драма, приключения, WEBDLRip] MVO

5 | 0

1.37 ГБ




Вы не можете начинать темы
Вы не можете отвечать на сообщения
Вы не можете редактировать свои сообщения
Вы не можете удалять свои сообщения
Вы не можете добавлять вложения

Перейти:  
 Вход
ppkBB3cker v.2 © 2008-2014 @ PPK
[ Time : 0.889s | 16 Queries | GZIP : Off ]

cron