img image001 image001 image001 image001 image001 image001 image001 image001 image001 image001 image001 image001 image001 image001 image001

Planets Sun Sun Sun
Статистика раздачи
Автор: Снежана | Размер: 1.46 ГБ | Добавлен: 24 июн 2019
Раздают: 26    Качают: 0
Скачать торрент
Скачать торрент
Описание торрента

СообщениеДобавлено: 24 июн 2019 

Код Красный / Red Joan


Перевод: Профессиональный (многоголосый закадровый) HDRezka Studio, субтитры: отсутствуют
Формат: WEBDLRip-AVC, MKV, H.264, AC3
Страна: Великобритания
Режиссер: Тревор Нанн
Жанр: драма, мелодрама, биография
Продолжительность: 01:40:51
Год выпуска: 2018
В ролях: Джуди Денч, Софи Куксон, Стивен Кэмпбелл Мур, Том Хьюз, Лоуренс Спэллман, Тереза Србова, Бен Майлз, Робин Соанс, Кевин Фуллер, Стефен Боксер, Фредди Гаминара

Описание: Реальная история русской шпионки, которая предотвратила Третью мировую войну. Британская разведка долгие годы гонялась за ней, ее имя стало легендой, но о ее подвиге мы узнали только сейчас, когда был снят гриф секретности.



Видео: 1024x432 (2.40:1), 24 fps, AVC MPEG4 (x264), , ~1884 kbps avg, 0.177 bit/pixel
Аудио: 48 kHz, AC3 Dolby Digital, 2 (L,R) ch, ~192.00 kbps avg
General
Unique ID : 65895961151850972266282439487764608293 (0x319319B908D69A33B0EAE77A9A28B525)
Complete name : C:\Users\123\Desktop\Red.Joan.2018.WEB-DLRip-AVC_[tfile.ru].mkv
Format : Matroska
Format version : Version 4 / Version 2
File size : 1.46 GiB
Duration : 1h 40mn
Overall bit rate mode : Constant
Overall bit rate : 2 076 Kbps
Movie name : Red.Joan.2018. #TorpedoUK#
Encoded date : UTC 2019-06-24 02:11:21
Writing application : Lavf56.36.100
Writing library : Lavf56.36.100

Video
ID : 2
Format : AVC
Format/Info : Advanced Video Codec
Format profile :
Format settings, CABAC : Yes
Format settings, ReFrames : 2 frames
Format settings, GOP : M=1, N=25
Codec ID : V_MPEG4/ISO/AVC
Duration : 1h 40mn
Bit rate mode : Constant
Bit rate : 1 884 Kbps
Width : 1 024 pixels
Height : 432 pixels
Display aspect ratio : 2.40:1
Frame rate mode : Constant
Frame rate : 24.000 fps
Color space : YUV
Chroma subsampling : 4:2:0
Bit depth : 8 bits
Scan type : Progressive
Bits/(Pixel*Frame) : 0.177
Stream size : 1.30 GiB (89%)
Title : Red.Joan.2018.1080p.WEB-DL.DD5.1.H264-FGT
Language : English
Default : Yes
Forced : No
DURATION : 01:40:51.250000000
NUMBER_OF_FRAMES : 145230
NUMBER_OF_BYTES : 3436237845
_STATISTICS_WRITING_APP : mkvmerge v29.0.0 (''Like It Or Not'') 64-bit
_STATISTICS_WRITING_DATE_UTC : 2019-06-24 02:11:21
_STATISTICS_TAGS : BPS DURATION NUMBER_OF_FRAMES NUMBER_OF_BYTES

Audio
ID : 1
Format : AC-3
Format/Info : Audio Coding 3
Mode extension : CM (complete main)
Format settings, Endianness : Big
Codec ID : A_AC3
Duration : 1h 40mn
Bit rate mode : Constant
Bit rate : 192 Kbps
Channel(s) : 2 channels
Channel positions : Front: L R
Sampling rate : 48.0 KHz
Bit depth : 32 bits
Compression mode : Lossy
Stream size : 139 MiB (9%)
Title : MVO [HDRezka Studio]
Language : Russian
Default : Yes
Forced : No
DURATION : 01:40:51.296000000
NUMBER_OF_FRAMES : 189103
NUMBER_OF_BYTES : 145231104
_STATISTICS_WRITING_APP : mkvmerge v29.0.0 (''Like It Or Not'') 64-bit
_STATISTICS_WRITING_DATE_UTC : 2019-06-24 02:11:21
_STATISTICS_TAGS : BPS DURATION NUMBER_OF_FRAMES NUMBER_OF_BYTES








   Похожие торренты   Торрент   Размер 
В этой теме нет новых непрочитанных сообщений. Код Красный / Red Joan (Тревор Нанн) [2018, драма, мелодрама, биография, BDRip] DUB

20 | 2

1.46 ГБ

В этой теме нет новых непрочитанных сообщений. Вита и Вирджиния / Vita & Virginia (Чания Баттон) [2018, драма, мелодрама, биография, WEBDLRip] MVO

29 | 4

1.46 ГБ

В этой теме нет новых непрочитанных сообщений. Американский дебошир / Brawler (Кен Кушнер) [2018, драма, спорт, история, биография, криминал, мелодрама, WEBDLRip] MVO

76 | 5

1.37 ГБ

В этой теме нет новых непрочитанных сообщений. Морской Пехотинец 6: Ближний Бой / The Marine 6: Close Quarters (Джеймс Нанн ) [2018, боевик, драма, WEBDLRip-AVC] MVO

40 | 0

1.45 ГБ

В этой теме нет новых непрочитанных сообщений. Морской Пехотинец 6: Ближний Бой / The Marine 6: Close Quarters (Джеймс Нанн ) [2018, боевик, драма, WEBDLRip] MVO

4 | 0

1.46 ГБ

В этой теме нет новых непрочитанных сообщений. Морской Пехотинец 6: Ближний Бой / The Marine 6: Close Quarters (Джеймс Нанн) [2018, боевик, драма, WEBDLRip] MVO

30 | 0

1.37 ГБ

В этой теме нет новых непрочитанных сообщений. Убийство Джоан / Killing Joan (Тодд Барту) [2018, драма, триллер, криминал, ужасы, боевик, WEBDLRip] MVO

3 | 0

1.46 ГБ




Вы не можете начинать темы
Вы не можете отвечать на сообщения
Вы не можете редактировать свои сообщения
Вы не можете удалять свои сообщения
Вы не можете добавлять вложения

Перейти:  
 Вход
ppkBB3cker v.2 © 2008-2014 @ PPK
[ Time : 0.019s | 15 Queries | GZIP : Off ]

cron