img image001 image001 image001 image001 image001 image001 image001 image001 image001 image001 image001 image001 image001 image001 image001

Planets Sun Sun Sun
Статистика раздачи
Автор: Снежана | Размер: 1.45 ГБ | Добавлен: 04 июл 2019
Раздают: 20    Качают: 0
Скачать торрент
Скачать торрент
Описание торрента

СообщениеДобавлено: 04 июл 2019 

[b]Суспирия / Suspiria[/b]

______________________________________________«Танец заберет твою душу»

Перевод: Профессиональный (полное дублирование) [ iTunes]

Cубтитры: английские (на немецкую речь) [вшитые]

Формат: BDRip-AVC, MKV, H.264, AC3

Страна: Италия, США

Режиссер: Лука Гуаданьино

Жанр: ужасы, мистика, триллер, драма, детектив

Продолжительность: 02:32:10

Год выпуска: 2018

В ролях: Дакота Джонсон, Тильда Суинтон, Хлоя Грейс Морец, Миа Гот, Дорис Хик, Малгоша Бела, Ангела Винклер, Ванда Каприоло, Алек Век, Джессика Батю, Елена Фокина, Оливия Анконаи др.

Описание: Молодая американская балерина Сьюзи Бэннион приезжает в Берлин в разгар Немецкой осени, чтобы обучаться танцевальному мастерству в известной балетной школе Tanz. Её прибытие совпадает с внезапным исчезновением другой ученицы, Патриции Хингл, и последним, кто её видел, оказывается психиатр Джозеф Клемперер. Ему Патриция подробно рассказывает о том, что балетмейстеры школы являются ведьмами, а также излагает идею о «Трёх Матерях»: Мать Тьмы, Мать Слез и Мать Вздохов...

____________

Видео: 780x422 (16:9), 24.000 fps, AVC MPEG-4 (H.264), ~1146 kbps, 0.145 bit/pixel
Аудио : 48 kHz, AC3 Dolby Digital, 2/0 (L,R) ch, ~192 kbps

Доп. информация: Реклама отсутствует.

General
Unique ID : 187620137354465023611076252301823200475 (0x8D2652F642159146978E21BE88864CDB)
Complete name : E:Suspiria.2018_Klayd X.mkv
Format : Matroska
File size : 1.45 GiB
Duration : 2h 32mn
Overall bit rate : 1 365 Kbps
Movie name : Суспирия (2018) BDRip-AVC_ivanes
Encoded date : UTC 2019-02-05 12:41:55
Writing application : mkvmerge v4.4.0 ('Die Wiederkehr') сборка от Jan 3 2011 21:40:45
Writing library : libebml v1.0.0 + libmatroska v1.0.0
Cover : Yes

Video
ID : 1
Format : AVC
Format/Info : Advanced Video Codec
Format profile :
Format settings, CABAC : Yes
Format settings, ReFrames : 14 frames
Codec ID : V_MPEG4/ISO/AVC
Duration : 2h 32mn
Bit rate : 1 146 Kbps
Width : 780 pixels
Height : 422 pixels
Display aspect ratio : 16:9
Frame rate : 24.000 fps
Color space : YUV
Chroma subsampling : 4:2:0
Bit depth : 8 bits
Scan type : Progressive
Bits/(Pixel*Frame) : 0.145
Stream size : 1.22 GiB (84%)
Title : Rip by ivanes
Writing library : x264 core 157 r2935 545de2f
Encoding settings : cabac=1 / ref=14 / deblock=1:-3:-3 / analyse=0x3:0x113 / me=umh / subme=10 / psy=1 / psy_rd=1.00:0.00 / mixed_ref=1 / me_range=32 / chroma_me=1 / trellis=2 / 8x8dct=1 / cqm=0 / deadzone=21,11 / fast_pskip=0 / chroma_qp_offset=-2 / threads=13 / lookahead_threads=3 / sliced_threads=0 / nr=0 / decimate=1 / interlaced=0 / bluray_compat=0 / constrained_intra=0 / bframes=14 / b_pyramid=2 / b_adapt=2 / b_bias=0 / direct=1 / weightb=1 / open_gop=0 / weightp=2 / keyint=240 / keyint_min=24 / scenecut=40 / intra_refresh=0 / rc_lookahead=60 / rc=crf / mbtree=0 / crf=17.6 / qcomp=0.60 / qpmin=0 / qpmax=69 / qpstep=4 / vbv_maxrate=50000 / vbv_bufsize=62500 / crf_max=0.0 / nal_hrd=none / filler=0 / ip_ratio=1.40 / pb_ratio=1.30 / aq=1:1.00

Audio
ID : 2
Format : AC-3
Format/Info : Audio Coding 3
Mode extension : CM (complete main)
Codec ID : A_AC3
Duration : 2h 32mn
Bit rate mode : Constant
Bit rate : 192 Kbps
Channel(s) : 2 channels
Channel positions : Front: L R
Sampling rate : 48.0 KHz
Bit depth : 16 bits
Compression mode : Lossy
Stream size : 209 MiB (14%)
Title : iTunes
Language : Russian

Готовясь к роли, Дакота Джонсон два года посвятила занятиям балетом.

Действие фильма разворачивается в Берлине 1977 года — именно тогда вышла «Суспирия» Дарио Ардженто.

Значительная часть съемок проходила в Германии, однако основной локацией стал закрытый с 1968 года Гранд Отель, расположенный на вершине горы в Варезе (Италия). Здание было полностью перестроено под интерьер танцевальной академии.

В фильме снялась Джессика Харпер, которая в одноименной картине Дарио Ардженто сыграла главную героиню Сьюзи Бэннион.

Перед премьерой фильма и некоторое время после авторы и сама Тильда Суинтон утверждали, что исполнитель роли доктора Клемперера Лутц Эберсдорф (Lutz Ebersdorf) – реальный человек. Однако даже в самом имени кроется подсказка, подтверждающая связь с фамилией Суинтон (Swinton): «Эбер» («Eber») в переводе с немецкого на английский означает «boar» или «swine» (рус. кабан, свинья), а «дорф» («dorf») означает «town» (рус. город). Что складывается в фамилию актрисы – Swine-town, или Swinton.

Для сцены с главным танцевальным номером Volk каждый костюм был связан вручную из красных канатных веревок. Художники по костюмам специально обучались технике бандажа, вдохновляясь при этом творчеством японского художника и фотографа-провокатора Нобуёси Араки, известного своими работами эротического характера.

Работая над визуальным стилем фильма, режиссер Лука Гуаданьино вдохновлялся картинами немецкого режиссера Райнера Вернера Фассбиндера. Кроме того, в «Суспирии» сыграла Ингрид Кавен – актриса, муза и бывшая супруга Фассбиндера, а также звезда более чем 15 фильмов режиссера.

В 2008 году главную роль предлагали Натали Портман.










   Похожие торренты   Торрент   Размер 
В этой теме нет новых непрочитанных сообщений. Суспирия / Suspiria (Лука Гуаданьино) [2018, ужасы, фэнтези, триллер, детектив, HDRip] DUB / Мистика

10 | 0

2.2 ГБ

В этой теме нет новых непрочитанных сообщений. Суспирия / Suspiria (Дарио Ардженто) [1977, ужасы,триллер, мистика, DVDRip] MVO / Мистика

0 | 0

1.48 ГБ

В этой теме нет новых непрочитанных сообщений. СУСПИРИЯ / Suspiria (Дарио Ардженто|Dario Argento) [1977, ужасы,детектив, HDRip] / Мистика

0 | 0

2.64 ГБ

В этой теме нет новых непрочитанных сообщений. Суспирия / Suspiria (Дарио Ардженто) [1977, ужасы, HDRip-AVC] MVO / Мистика

2 | 0

1.43 ГБ

В этой теме нет новых непрочитанных сообщений. Сомния / Before I Wake (Майк Флэнеган) [2016, ужасы, мистика, триллер, драма, детектив, BDRip] DUB / Мистика

24 | 2

2.1 ГБ

В этой теме нет новых непрочитанных сообщений. Проклятие Аннабель 3 / Annabelle Comes Home (Гари Доберман) [2019, ужасы, триллер, детектив, BDRip] DUB / Мистика

17 | 2

1.46 ГБ

В этой теме нет новых непрочитанных сообщений. Экстаз / Climax (Гаспар Ноэ) [2018, мюзикл, ужасы, драма, детектив, триллер, BDRip] DUB / Мистика

19 | 1

1.42 ГБ




Вы не можете начинать темы
Вы не можете отвечать на сообщения
Вы не можете редактировать свои сообщения
Вы не можете удалять свои сообщения
Вы не можете добавлять вложения

Перейти:  
cron
 Вход
ppkBB3cker v.2 © 2008-2014 @ PPK
[ Time : 0.055s | 16 Queries | GZIP : Off ]

cron