img image001 image001 image001 image001 image001 image001 image001 image001 image001 image001 image001 image001 image001 image001 image001 image001

Planets Sun Sun Sun
Статистика раздачи
Автор: Снежана | Размер: 3.71 ГБ | Добавлен: 22 июл 2013
Раздают: 82    Качают: 4
Скачать торрент
Скачать торрент
Описание торрента

СообщениеДобавлено: 22 июл 2013 

#77

Информация о фильме
Название: Особо опасен
Оригинальное название: Wanted
Год выхода: 2008
Жанр: Боевик, триллер, криминал
Режиссер: Тимур Бекмамбетов
В ролях: Джеймс МакЭвой, Морган Фримен, Анджелина Джоли, Теренс Стэмп, Томас Кречманн, Коммон, Кристен Хагер, Марк Уоррен, Дэвид О`Хара, Константин Хабенский

О фильме:
25-летний Уэс когда-то был самым недовольным жизнью дармоедом на земле. Его босс постоянно журил его, его девушка не обращала на него внимания, и его жизнь постепенно превращалась в растительную. Все были уверены, что этот лузер никогда ничего не добьётся. Уэсу грозила одна-единственная перспектива — влачить жалкое существование и умереть в свой срок в полном одиночестве. Но всё это продолжалось до тех пор, пока он не познакомился с женщиной по имени Фокс. После убийства его отца сексуальная и обворожительная Фокс приглашает Уэса вступить в Братство. Это тайное общество, члены которого могут научить его отомстить за смерть отца, разбудив спящие в нём запасы силы. Фокс учит его развивать молниеносные рефлексы и феноменальную скорость. Вскоре Уэс обнаруживает, что тайное общество живёт по нерушимому древнему кодексу: выполняй смертные приговоры судьбы. Блестящие наставники — включая загадочного лидера братства, Слоана — помогают Уэсу овладеть всеми навыками, о которых он мечтал всю жизнь. Однако вскоре он начинает понимать, что его опасные союзники не так просты, как кажется. Балансируя между своим новообретённым героизмом и жаждой мести, Уэс учится тому, чему научить никто не может: только он один может контролировать свою судьбу.

Страна: США, Германия
Студия: Universal Pictures, Spyglass Entertainment, Relativity Media, Marc Platt Productions, Kickstart Productions, Top Cow Productions, Ringerike Zweite Filmproduktion, Bazelevs Production
Продолжительность: 01:50:25
Перевод: Дублированный, авторский (одноголосый закадровый)

Файл
Кодек: h264
Качество: BDRip-AVC
Видео: MPEG-4 AVC, 3104 Кбит/с, 1024х436, 23.976 кадр/с

Звук:
• №1: Русский (AC3, 6 ch, 448 Кбит/с) Дублированный
• №2: Русский (AC3, 6 ch, 448 Кбит/с) Авторский одноголосый [Андрей Гаврилов]
• №3: Украинский (AC3, 6 ch, 448 Кбит/с) Дублированный
• №4: Английский (AC3, 6 ch, 448 Кбит/с)

Субтитры:
• Русские [форсированные]
• Русские [полные №1]
• Русские [полные №2]
• Английские

Полное имя : Osobo.opasen.2008.x264.BDRip.(AVC).0ptimus.mkv
Формат : Matroska
Версия формата : Version 2
Размер файла : 3,71 Гбайт
Продолжительность : 1 ч. 50 м.
Общий поток : 4812 Кбит/сек
Название фильма : Особо опасен / Wanted [2008] -=BDRip (AVC) by 0ptimus=-
Дата кодирования : UTC 2012-11-18 07:22:54
Программа кодирования : mkvmerge v5.8.0 ('No Sleep / Pillow') built on Sep 2 2012 15:37:04
Библиотека кодирования : libebml v1.2.3 + libmatroska v1.3.0

Видео
Идентификатор : 1
Формат : AVC
Формат/Информация : Advanced Video Codec
Профиль формата : High@L4.1
Параметр CABAC формата : Да
Параметр ReFrames формата : 9 кадров
Идентификатор кодека : V_MPEG4/ISO/AVC
Продолжительность : 1 ч. 50 м.
Битрейт : 3104 Кбит/сек
Ширина : 1024 пикселя
Высота : 436 пикселей
Соотношение сторон : 2,35:1
Режим частоты кадров : Постоянный
Частота кадров : 23,976 кадра/сек
Цветовое пространство : YUV
Субдискретизация насыщенности : 4:2:0
Битовая глубина : 8 бит
Тип развёртки : Прогрессивная
Бит/(Пиксели*Кадры) : 0.290
Размер потока : 2,30 Гбайт (62%)
Заголовок : Rip by 0ptimus
Библиотека кодирования : x264 core 128 r2216 198a7ea
Настройки программы : cabac=1 / ref=9 / deblock=1:-3:-3 / analyse=0x3:0x113 / me=umh / subme=11 / psy=1 / psy_rd=1.00:0.20 / mixed_ref=1 / me_range=32 / chroma_me=1 / trellis=2 / 8x8dct=1 / cqm=0 / deadzone=21,11 / fast_pskip=0 / chroma_qp_offset=-3 / threads=3 / lookahead_threads=1 / sliced_threads=0 / nr=0 / decimate=0 / interlaced=0 / bluray_compat=0 / constrained_intra=0 / bframes=12 / b_pyramid=2 / b_adapt=2 / b_bias=0 / direct=3 / weightb=1 / open_gop=0 / weightp=2 / keyint=240 / keyint_min=23 / scenecut=40 / intra_refresh=0 / rc_lookahead=40 / rc=2pass / mbtree=0 / bitrate=3104 / ratetol=1.0 / qcomp=0.60 / qpmin=0 / qpmax=69 / qpstep=4 / cplxblur=20.0 / qblur=0.5 / vbv_maxrate=50000 / vbv_bufsize=50000 / nal_hrd=none / ip_ratio=1.40 / pb_ratio=1.30 / aq=1:1.00
Язык : English
Default : Да
Forced : Да

Аудио #1
Идентификатор : 2
Формат : AC-3
Формат/Информация : Audio Coding 3
Расширение режима : CM (complete main)
Параметр Endianness формата : Big
Идентификатор кодека : A_AC3
Продолжительность : 1 ч. 50 м.
Вид битрейта : Постоянный
Битрейт : 448 Кбит/сек
Каналы : 6 каналов
Расположение каналов : Front: L C R, Side: L R, LFE
Частота : 48,0 КГц
Битовая глубина : 16 бит
Метод сжатия : С потерями
Размер потока : 354 Мбайт (9%)
Заголовок : Дублированный
Язык : Russian
Default : Да
Forced : Да

Аудио #2
Идентификатор : 3
Формат : AC-3
Формат/Информация : Audio Coding 3
Расширение режима : CM (complete main)
Параметр Endianness формата : Big
Идентификатор кодека : A_AC3
Продолжительность : 1 ч. 50 м.
Вид битрейта : Постоянный
Битрейт : 448 Кбит/сек
Каналы : 6 каналов
Расположение каналов : Front: L C R, Side: L R, LFE
Частота : 48,0 КГц
Битовая глубина : 16 бит
Метод сжатия : С потерями
Размер потока : 354 Мбайт (9%)
Заголовок : Авторский [Андрей Гаврилов]
Язык : Russian
Default : Нет
Forced : Нет

Аудио #3
Идентификатор : 4
Формат : AC-3
Формат/Информация : Audio Coding 3
Расширение режима : CM (complete main)
Параметр Endianness формата : Big
Идентификатор кодека : A_AC3
Продолжительность : 1 ч. 50 м.
Вид битрейта : Постоянный
Битрейт : 384 Кбит/сек
Каналы : 6 каналов
Расположение каналов : Front: L C R, Side: L R, LFE
Частота : 48,0 КГц
Битовая глубина : 16 бит
Метод сжатия : С потерями
Размер потока : 303 Мбайт (8%)
Заголовок : Дублированный
Язык : Ukrainian
Default : Нет
Forced : Нет

Аудио #4
Идентификатор : 5
Формат : AC-3
Формат/Информация : Audio Coding 3
Расширение режима : CM (complete main)
Параметр Endianness формата : Big
Идентификатор кодека : A_AC3
Продолжительность : 1 ч. 50 м.
Вид битрейта : Постоянный
Битрейт : 448 Кбит/сек
Каналы : 6 каналов
Расположение каналов : Front: L C R, Side: L R, LFE
Частота : 48,0 КГц
Битовая глубина : 16 бит
Метод сжатия : С потерями
Размер потока : 354 Мбайт (9%)
Язык : English
Default : Нет
Forced : Нет

Текст #1
Идентификатор : 6
Формат : UTF-8
Идентификатор кодека : S_TEXT/UTF8
Идентификатор кодека/Информация : UTF-8 Plain Text
Заголовок : Forced
Язык : Russian
Default : Нет
Forced : Нет

Текст #2
Идентификатор : 7
Формат : UTF-8
Идентификатор кодека : S_TEXT/UTF8
Идентификатор кодека/Информация : UTF-8 Plain Text
Заголовок : Full #1
Язык : Russian
Default : Нет
Forced : Нет

Текст #3
Идентификатор : 8
Формат : UTF-8
Идентификатор кодека : S_TEXT/UTF8
Идентификатор кодека/Информация : UTF-8 Plain Text
Заголовок : Full #2
Язык : Russian
Default : Нет
Forced : Нет

Текст #4
Идентификатор : 9
Формат : UTF-8
Идентификатор кодека : S_TEXT/UTF8
Идентификатор кодека/Информация : UTF-8 Plain Text
Язык : English
Default : Нет
Forced : Нет

Меню
00:00:00.000 : :The Fraternity
00:07:01.921 : :Stressed Out
00:12:58.235 : :Greatest Assassin
00:20:58.590 : :One of Us
00:26:25.834 : :I'm the Man
00:32:11.512 : :In the Factory
00:37:30.373 : :Feeling Good
00:42:04.688 : :One By One
00:45:22.136 : :Who Are You?
00:51:53.902 : :Loom of Fate
00:56:23.838 : :First Target
01:00:58.780 : :Second Target
01:04:00.211 : :A Message
01:09:42.636 : :Meeting the Maker
01:13:32.032 : :Off Track
01:20:23.777 : :Perfet Weapon
01:27:10.683 : :Kill Him
01:33:24.557 : :Follow the Code
01:39:26.460 : :Taking Control
01:42:22.052 : :End Titles
01:50:00.218 : :Kapitel 21

x264 [info]: frame I:1284 Avg QP:15.83 size: 78420
x264 [info]: frame P:37817 Avg QP:18.77 size: 29178
x264 [info]: frame B:119152 Avg QP:20.53 size: 11353





Релиз от: 0ptimus



   Похожие торренты   Торрент   Размер 
В этой теме нет новых непрочитанных сообщений. Особо опасен / Wanted (2008) BDRip 720p | D

279 | 24

2.98 ГБ

В этой теме нет новых непрочитанных сообщений. Особо опасен / Wanted (2008) BDRip 720p от NNNB | 60 fps

182 | 32

5.94 ГБ

В этой теме нет новых непрочитанных сообщений. Особо опасен / Wanted (2008) Blu-ray CEE 1080p | D

13 | 10

41.97 ГБ

В этой теме нет новых непрочитанных сообщений. Особо опасен / Wanted (2008) HDRip-AVC | D

200 | 13

742.84 МБ

В этой теме нет новых непрочитанных сообщений. Особо опасен / Wanted (2008) HDRip от Scarabey | D

55 | 4

750.95 МБ

В этой теме нет новых непрочитанных сообщений. Особо опасен / Wanted (2008) HDRip от Scarabey | D

244 | 7

1.45 ГБ

В этой теме нет новых непрочитанных сообщений. Особо опасен / Wanted (2008) HDRip от Шкипер

96 | 5

750.63 МБ




Вы не можете начинать темы
Вы не можете отвечать на сообщения
Вы не можете редактировать свои сообщения
Вы не можете удалять свои сообщения
Вы не можете добавлять вложения

Перейти:  
 Вход
ppkBB3cker v.2 © 2008-2014 @ PPK
[ Time : 0.028s | 15 Queries | GZIP : Off ]

cron