img image001 image001 image001 image001 image001 image001 image001 image001 image001 image001 image001 image001 image001 image001 image001

Planets Sun Sun Sun
Статистика раздачи
Автор: Снежана | Размер: 1.46 ГБ | Добавлен: 09 июл 2019
Раздают: 6    Качают: 1
Скачать торрент
Скачать торрент
Описание торрента

СообщениеДобавлено: 09 июл 2019 

Город порока / Broken City


Перевод: Профессиональный (полное дублирование), субтитры: отсутствуют
Формат: HDRip-AVC, MKV, H.264, AC3
Страна: США
Режиссер: Аллен Хьюз
Жанр: триллер, драма, криминал
Продолжительность: 01:48:41
Год выпуска: 2013
В ролях: Марк Уолберг, Рассел Кроу, Кэтрин Зета-Джонс, Барри Пеппер, Кайл Чандлер, Натали Мартинес, Джеффри Райт, Алона Тал, Майкл Бич, Джеймс Рэнсон, Гриффин Данн, Одесса Сайкес

Описание: История бывшего полицейского Билли Таггерта. 7 лет назад он стрелял в 16-летнего подростка, за что был уволен из полиции. Теперь Таггерт работает частным детективом, которого нанимает мэр, чтобы тот разузнал, не изменяет ли ему жена. Однако расследование адюльтера супруги мэра выливается в настоящий скандал. Человек, с которым жена мэра изменяла мужу, убит, а на поверхность всплывает нехорошая история с недвижимостью.



Видео: 1024x432 (2.40:1), 23.976 fps, AVC MPEG4 (x264), , ~1543 kbps avg, 0.145 bit/pixel
Аудио: 48 kHz, AC3 Dolby Digital, 3/2 (L,C,R,l,r) + LFE ch, ~384 kbps
General
Unique ID : 220225280649853935429917845317707659338 (0xA5ADD8A3EF989C6598608C2552AC784A)
Complete name : C:\Users\123\Desktop\Broken.City.(2013).HDRip-AVC_[tfile.ru].mkv
Format : Matroska
Format version : Version 4 / Version 2
File size : 1.46 GiB
Duration : 1h 48mn
Overall bit rate mode : Constant
Overall bit rate : 1 927 Kbps
Movie name : Broken.City.(2013).BDRip.720p.[denis100]
Encoded date : UTC 2019-07-08 15:57:05
Writing application : Lavf56.36.100
Writing library : Lavf56.36.100

Video
ID : 2
Format : AVC
Format/Info : Advanced Video Codec
Format profile :
Format settings, CABAC : Yes
Format settings, ReFrames : 2 frames
Format settings, GOP : M=1, N=25
Codec ID : V_MPEG4/ISO/AVC
Duration : 1h 48mn
Bit rate mode : Constant
Bit rate : 1 543 Kbps
Width : 1 024 pixels
Height : 432 pixels
Display aspect ratio : 2.40:1
Frame rate mode : Constant
Frame rate : 23.976 fps
Color space : YUV
Chroma subsampling : 4:2:0
Bit depth : 8 bits
Scan type : Progressive
Bits/(Pixel*Frame) : 0.145
Stream size : 1.14 GiB (78%)
Title : Broken.City.(2013).BDRip.720p.[denis100]
Language : English
Default : Yes
Forced : No
DURATION : 01:48:41.515000000
NUMBER_OF_FRAMES : 156360
NUMBER_OF_BYTES : 3331563905
_STATISTICS_WRITING_APP : mkvmerge v7.4.0 (''Circles'') 64bit built on Dec 12 2014 12:19:56
_STATISTICS_WRITING_DATE_UTC : 2019-07-08 15:57:05
_STATISTICS_TAGS : BPS DURATION NUMBER_OF_FRAMES NUMBER_OF_BYTES

Audio
ID : 1
Format : AC-3
Format/Info : Audio Coding 3
Mode extension : CM (complete main)
Format settings, Endianness : Big
Codec ID : A_AC3
Duration : 1h 48mn
Bit rate mode : Constant
Bit rate : 384 Kbps
Channel(s) : 6 channels
Channel positions : Front: L C R, Side: L R, LFE
Sampling rate : 48.0 KHz
Bit depth : 32 bits
Compression mode : Lossy
Stream size : 299 MiB (20%)
Default : Yes
Forced : No
DURATION : 01:48:41.472000000
NUMBER_OF_FRAMES : 203796
NUMBER_OF_BYTES : 313030656
_STATISTICS_WRITING_APP : mkvmerge v7.4.0 (''Circles'') 64bit built on Dec 12 2014 12:19:56
_STATISTICS_WRITING_DATE_UTC : 2019-07-08 15:57:05
_STATISTICS_TAGS : BPS DURATION NUMBER_OF_FRAMES NUMBER_OF_BYTES










   Похожие торренты   Торрент   Размер 
В этой теме нет новых непрочитанных сообщений. Город порока / Broken City (2013) HDRip от MegaPeer | P

8 | 0

745.25 МБ

В этой теме нет новых непрочитанных сообщений. Книга Илая / The Book of Eli (Альберт Хьюз, Аллен Хьюз) [Open Matte] [2010, боевик, триллер, драма, приключения, WEB-DLRip] DUB / Боевики /Action

2 | 3

1.46 ГБ

В этой теме нет новых непрочитанных сообщений. Город-бомба / Bomb City (Джэми Брукс) [2017, Боевик, триллер, драма, криминал, вестерн, HDRip] MVO / Драмы

0 | 2

1.46 ГБ

В этой теме нет новых непрочитанных сообщений. Безумный город / Mad City (Коста-Гаврас) [1997, триллер, драма, криминал, DVDRip] DUB

14 | 0

1.45 ГБ

В этой теме нет новых непрочитанных сообщений. Безумный город / Mad City (Коста-Гаврас) [1997, триллер, драма, криминал, BDRip] DUB+MVO

5 | 0

2.18 ГБ

В этой теме нет новых непрочитанных сообщений. Город лжи / City of Lies (Брэд Фурман) [2018, детектив, драма, биография, триллер, криминал, BDRip] MVO

323 | 12

1.46 ГБ

В этой теме нет новых непрочитанных сообщений. Город лжи / City of Lies (Брэд Фурман) [2019, триллер, драма, криминал, детектив, биография, TeleSynch] MVO

41 | 6

1.35 ГБ




Вы не можете начинать темы
Вы не можете отвечать на сообщения
Вы не можете редактировать свои сообщения
Вы не можете удалять свои сообщения
Вы не можете добавлять вложения

Перейти:  
 Вход
ppkBB3cker v.2 © 2008-2014 @ PPK
[ Time : 0.052s | 16 Queries | GZIP : Off ]

cron