img image001 image001 image001 image001 image001 image001 image001 image001 image001 image001 image001 image001 image001 image001 image001

Planets Sun Sun Sun
Статистика раздачи
Автор: Снежана | Размер: 2.18 ГБ | Добавлен: 09 июл 2019
Раздают: 22    Качают: 0
Скачать торрент
Скачать торрент
Описание торрента

СообщениеДобавлено: 09 июл 2019 

Офелия / Ophelia


Перевод: Профессиональный (многоголосый закадровый) СВ Студия, субтитры: отсутствуют
Формат: WEBDLRip-AVC, MKV, H.264, AC3
Страна: Великобритания, США
Режиссер: Клэр Маккарти
Жанр: мелодрама, история
Продолжительность: 01:46:19
Год выпуска: 2018
В ролях: Дэйзи Ридли, Наоми Уоттс, Том Фелтон, Клайв Оуэн, Джордж МакКэй, Дэйзи Хэд, Себастьян де Соуса, Доминик Мафэм, Девон Террелл, Анна Раст

Описание: Темные времена настали в королевстве. Правитель мертв, а его трон занял самозванец и убийца. Гамлет, законный наследник престола, клянется отомстить за отца. Сердце принца способна смягчить лишь прекрасная Офелия. Ради него она готова оставить двор и пойти против тирана. Но cмогут ли их чувства преодолеть саму смерть?..



Видео: 1024x432 (2.40:1), 23.976 fps, AVC MPEG4 (x264), , ~2043 kbps avg, 0.193 bit/pixel
Аудио #1: Русский:48 kHz, AC3 Dolby Digital, 3/2 (L,C,R,l,r) + LFE ch, ~448 kbps [Профессиональный (многоголосый закадровый)]
Аудио #2: Английский:48 kHz, AC3 Dolby Digital, 3/2 (L,C,R,l,r) + LFE ch, ~448 kbps [Оригинал]
General
Unique ID : 219922782829909068782347425572890242783 (0xA5739658ABBAA920F9913253ACFA6EDF)
Complete name : C:\Users\123\Desktop\Ophelia.2018.WEBDLRip-AVC_[tfile.ru].mkv
Format : Matroska
Format version : Version 4 / Version 2
File size : 2.18 GiB
Duration : 1h 46mn
Overall bit rate mode : Constant
Overall bit rate : 2 941 Kbps
Encoded date : UTC 2019-07-08 19:37:50
Writing application : Lavf56.36.100
Writing library : Lavf56.36.100

Video
ID : 3
Format : AVC
Format/Info : Advanced Video Codec
Format profile :
Format settings, CABAC : Yes
Format settings, ReFrames : 2 frames
Format settings, GOP : M=1, N=25
Codec ID : V_MPEG4/ISO/AVC
Duration : 1h 46mn
Bit rate mode : Constant
Bit rate : 2 043 Kbps
Width : 1 024 pixels
Height : 432 pixels
Display aspect ratio : 2.40:1
Frame rate mode : Constant
Frame rate : 23.976 fps
Color space : YUV
Chroma subsampling : 4:2:0
Bit depth : 8 bits
Scan type : Progressive
Bits/(Pixel*Frame) : 0.193
Stream size : 1.48 GiB (68%)
Default : Yes
Forced : No
DURATION : 01:46:18.831000000
NUMBER_OF_FRAMES : 152939
NUMBER_OF_BYTES : 5423129725
_STATISTICS_WRITING_APP : mkvmerge v7.4.0 (''Circles'') 64bit built on Dec 12 2014 12:19:56
_STATISTICS_WRITING_DATE_UTC : 2019-07-08 19:37:50
_STATISTICS_TAGS : BPS DURATION NUMBER_OF_FRAMES NUMBER_OF_BYTES

Audio #1
ID : 1
Format : AC-3
Format/Info : Audio Coding 3
Mode extension : CM (complete main)
Format settings, Endianness : Big
Codec ID : A_AC3
Duration : 1h 46mn
Bit rate mode : Constant
Bit rate : 448 Kbps
Channel(s) : 6 channels
Channel positions : Front: L C R, Side: L R, LFE
Sampling rate : 48.0 KHz
Bit depth : 32 bits
Compression mode : Lossy
Stream size : 341 MiB (15%)
Default : Yes
Forced : No
DURATION : 01:46:18.848000000
NUMBER_OF_FRAMES : 199339
NUMBER_OF_BYTES : 357215488
_STATISTICS_WRITING_APP : mkvmerge v7.4.0 (''Circles'') 64bit built on Dec 12 2014 12:19:56
_STATISTICS_WRITING_DATE_UTC : 2019-07-08 19:37:50
_STATISTICS_TAGS : BPS DURATION NUMBER_OF_FRAMES NUMBER_OF_BYTES

Audio #2
ID : 2
Format : AC-3
Format/Info : Audio Coding 3
Mode extension : CM (complete main)
Format settings, Endianness : Big
Codec ID : A_AC3
Duration : 1h 46mn
Bit rate mode : Constant
Bit rate : 448 Kbps
Channel(s) : 6 channels
Channel positions : Front: L C R, Side: L R, LFE
Sampling rate : 48.0 KHz
Bit depth : 32 bits
Compression mode : Lossy
Stream size : 341 MiB (15%)
Default : Yes
Forced : No
DURATION : 01:46:18.848000000
NUMBER_OF_FRAMES : 199339
NUMBER_OF_BYTES : 357215488
_STATISTICS_WRITING_APP : mkvmerge v7.4.0 (''Circles'') 64bit built on Dec 12 2014 12:19:56
_STATISTICS_WRITING_DATE_UTC : 2019-07-08 19:37:50
_STATISTICS_TAGS : BPS DURATION NUMBER_OF_FRAMES NUMBER_OF_BYTES












   Похожие торренты   Торрент   Размер 
В этой теме нет новых непрочитанных сообщений. Офелия / Ophelia (Клэр Маккарти ) [2018, драма, мелодрама, история, WEBDLRip] MVO

27 | 1

1.46 ГБ

В этой теме нет новых непрочитанных сообщений. Офелия / Ophélia (1962) DVDRip

15 | 2

1.47 ГБ

В этой теме нет новых непрочитанных сообщений. Американский дебошир / Brawler (Кен Кушнер) [2018, драма, спорт, история, биография, криминал, мелодрама, WEBDLRip] MVO

76 | 5

1.37 ГБ

В этой теме нет новых непрочитанных сообщений. Омен: Перерождение / The Prodigy (Николас МакКарти) [2019, триллер, ужасы, WEBDLRip] DUB(TS)

12 | 2

1.36 ГБ

В этой теме нет новых непрочитанных сообщений. Омен: Перерождение / The Prodigy (Николас МакКарти) [2019, триллер, ужасы, WEBDLRip] DUB

34 | 8

1.46 ГБ

В этой теме нет новых непрочитанных сообщений. Парману: История Похрана / Parmanu: The Story of Pokhran (Абхишек Шарма) [2018, боевик, драма, история, WEBDLRip] MVO

3 | 1

1.45 ГБ

В этой теме нет новых непрочитанных сообщений. Скандальная леди У / The Scandalous Lady W (Шери Фоксон) [2015, драма, мелодрама, история, WEBDLRip] VO / Драмы

36 | 2

1.46 ГБ




Вы не можете начинать темы
Вы не можете отвечать на сообщения
Вы не можете редактировать свои сообщения
Вы не можете удалять свои сообщения
Вы не можете добавлять вложения

Перейти:  
 Вход
ppkBB3cker v.2 © 2008-2014 @ PPK
[ Time : 0.036s | 18 Queries | GZIP : Off ]

cron