img image001 image001 image001 image001 image001 image001 image001 image001 image001 image001 image001 image001 image001 image001 image001

Planets Sun Sun Sun
Статистика раздачи
Автор: Снежана | Размер: 1.46 ГБ | Добавлен: 10 июл 2019
Раздают: 49    Качают: 2
Скачать торрент
Скачать торрент
Описание торрента

СообщениеДобавлено: 10 июл 2019 

Хеллбой / Hellboy


Перевод: Профессиональный (полное дублирование) iTunes, субтитры: отсутствуют
Формат: WEBDLRip-AVC, MKV, H.264, AC3
Страна: США, Великобритания, Болгария
Режиссер: Нил Маршалл
Жанр: фэнтези, боевик, приключения
Продолжительность: 02:00:47
Год выпуска: 2019
В ролях: Дэвид Харбор, Иэн МакШейн, Милла Йовович, Саша Лэйн, Дэниэл Дэ Ким, Алистэр Петри, Софи Оконедо, Томас Хейден Чёрч, Марк Стэнли, Брин Глисон, Надя Керанова, Мария Тепавичарова, Ана Тобакова, Пенелопа Митчелл, Терри Рендал, Стивен Грэм, Марио де ла Роса, Ванесса Эйчхольц

Описание: Близится час битвы Хеллбоя с Кровавой королевой, жаждущей отомстить всему человечеству за века в заточении. Оказавшись в эпицентре столкновения миров людей и монстров, Хеллбою придется пройти через ад, чтобы предотвратить надвигающийся апокалипсис.



Видео: 1024x432 (2.40:1), 23.976 fps, AVC MPEG4 (x264), , ~1352 kbps avg, 0.127 bit/pixel
Аудио: 48 kHz, AC3 Dolby Digital, 3/2 (L,C,R,l,r) + LFE ch, ~384 kbps
General
Unique ID : 113835937530347536764175007641622066462 (0x55A4010BA1451160BF54113B504CB51E)
Complete name : C:\Users\123\Desktop\Hellboy.2019.D.WEB-DLRip-AVC_[tfile.ru].mkv
Format : Matroska
Format version : Version 4 / Version 2
File size : 1.46 GiB
Duration : 2h 0mn
Overall bit rate mode : Constant
Overall bit rate : 1 736 Kbps
Movie name : Hellboy 2019 from селезень
Encoded date : UTC 2019-07-08 20:57:32
Writing application : Lavf56.36.100
Writing library : Lavf56.36.100

Video
ID : 2
Format : AVC
Format/Info : Advanced Video Codec
Format profile :
Format settings, CABAC : Yes
Format settings, ReFrames : 2 frames
Format settings, GOP : M=1, N=25
Codec ID : V_MPEG4/ISO/AVC
Duration : 2h 0mn
Bit rate mode : Constant
Bit rate : 1 352 Kbps
Width : 1 024 pixels
Height : 432 pixels
Display aspect ratio : 2.40:1
Frame rate mode : Constant
Frame rate : 23.976 fps
Color space : YUV
Chroma subsampling : 4:2:0
Bit depth : 8 bits
Scan type : Progressive
Bits/(Pixel*Frame) : 0.127
Stream size : 1.11 GiB (76%)
Language : English
Default : Yes
Forced : No
DURATION : 02:00:47.115000000
NUMBER_OF_FRAMES : 173757
NUMBER_OF_BYTES : 3649928516
_STATISTICS_WRITING_APP : mkvmerge v35.0.0 (''All The Love In The World'') 64-bit
_STATISTICS_WRITING_DATE_UTC : 2019-07-08 20:57:32
_STATISTICS_TAGS : BPS DURATION NUMBER_OF_FRAMES NUMBER_OF_BYTES

Audio
ID : 1
Format : AC-3
Format/Info : Audio Coding 3
Mode extension : CM (complete main)
Format settings, Endianness : Big
Codec ID : A_AC3
Duration : 2h 0mn
Bit rate mode : Constant
Bit rate : 384 Kbps
Channel(s) : 6 channels
Channel positions : Front: L C R, Side: L R, LFE
Sampling rate : 48.0 KHz
Bit depth : 32 bits
Compression mode : Lossy
Stream size : 332 MiB (22%)
Title : iTunes
Language : Russian
Default : Yes
Forced : No
DURATION : 02:00:47.168000000
NUMBER_OF_FRAMES : 226474
NUMBER_OF_BYTES : 347864064
_STATISTICS_WRITING_APP : mkvmerge v35.0.0 (''All The Love In The World'') 64-bit
_STATISTICS_WRITING_DATE_UTC : 2019-07-08 20:57:32
_STATISTICS_TAGS : BPS DURATION NUMBER_OF_FRAMES NUMBER_OF_BYTES










   Похожие торренты   Торрент   Размер 
В этой теме нет новых непрочитанных сообщений. Хеллбой / Hellboy (Нил Маршалл) [2019, фэнтези, боевик, приключения, BDRip] DUB / Фантастика

28 | 5

2.18 ГБ

В этой теме нет новых непрочитанных сообщений. Хеллбой / Hellboy (Нил Маршалл ) [2019, фэнтези, боевик, приключения , WEBDLRip] DUB

8 | 0

1.46 ГБ

В этой теме нет новых непрочитанных сообщений. Хеллбой / Hellboy (Нил Маршалл ) [2019, фэнтези, боевик, приключения, WEBRip] DUB (Ukr)

38 | 5

1.47 ГБ

В этой теме нет новых непрочитанных сообщений. Хеллбой / Hellboy (Нил Маршалл) [2019, приключения, фэнтези, боевик, HDRip] DUB

36 | 0

2.18 ГБ

В этой теме нет новых непрочитанных сообщений. Хеллбой / Hellboy (Нил Маршалл ) [2019, фэнтези, боевик, приключения , BDRip] DUB

28 | 9

1.46 ГБ

В этой теме нет новых непрочитанных сообщений. Хеллбой / Hellboy (Нил Маршалл ) [2019, фэнтези, боевик, приключения, WEBRip] MVO

57 | 0

1.46 ГБ

В этой теме нет новых непрочитанных сообщений. Хеллбой / Hellboy (Нил Маршалл) [2019, приключения, фэнтези, боевик, TeleSynch - V2] DUB

56 | 0

1.46 ГБ




Вы не можете начинать темы
Вы не можете отвечать на сообщения
Вы не можете редактировать свои сообщения
Вы не можете удалять свои сообщения
Вы не можете добавлять вложения

Перейти:  
 Вход
ppkBB3cker v.2 © 2008-2014 @ PPK
[ Time : 0.031s | 17 Queries | GZIP : Off ]

cron