img image001 image001 image001 image001 image001 image001 image001 image001 image001 image001 image001 image001 image001 image001 image001

Planets Sun Sun Sun
Статистика раздачи
Автор: Снежана | Размер: 1.46 ГБ | Добавлен: 10 июл 2019
Раздают: 22    Качают: 1
Скачать торрент
Скачать торрент
Описание торрента

СообщениеДобавлено: 10 июл 2019 

Не оставляющий следа / Untraceable


Перевод: Профессиональный (полное дублирование), субтитры: отсутствуют
Формат: HDRip-AVC, MKV, H.264, AC3
Страна: США
Режиссер: Грегори Хоблит
Жанр: триллер, криминал, детектив
Продолжительность: 01:41:00
Год выпуска: 2008
В ролях: Дайан Лэйн , Билли Бёрк , Колин Хэнкс , Джозеф Кросс , Мэри Бет Хёрт , Питер Грэй Льюис , Тайрон Джордано , Перла Аней-Жардине , Тим ДеЗарн , Кристофер Казинс , Джесси Тайлер Фергюсон , Трина Адамс

Описание: Специального агента по борьбе с интернет-преступлениями Дженнифер Марш, казалось, уже ничем невозможно было удивить — до недавнего момента. Технологически продвинутый убийца-маньяк размещает на своём сайте картины жестоких убийств. Судьба каждой из жертв напрямую зависит от количества посетивших сайт: чем больше «свидетелей», тем быстрее умирает жертва…



Видео: 1024x432 (2.40:1), 23.976 fps, AVC MPEG4 (x264), , ~1622 kbps avg, 0.153 bit/pixel
Аудио: 48 kHz, AC3 Dolby Digital, 3/2 (L,C,R,l,r) + LFE ch, ~448 kbps
General
Unique ID : 15081660020312833379400122967276782034 (0xB589F3F9D1EE09812DFB8EF92AE01D2)
Complete name : C:\Users\123\Desktop\Untraceable.2008.HDRip-AVC_[tfile.ru].mkv
Format : Matroska
Format version : Version 4 / Version 2
File size : 1.46 GiB
Duration : 1h 41mn
Overall bit rate mode : Constant
Overall bit rate : 2 070 Kbps
Movie name : Untraceable.2008.BDRip.720p.[denis100]
Encoded date : UTC 2016-11-05 11:43:36
Writing application : Lavf56.36.100
Writing library : Lavf56.36.100

Video
ID : 2
Format : AVC
Format/Info : Advanced Video Codec
Format profile :
Format settings, CABAC : Yes
Format settings, ReFrames : 2 frames
Format settings, GOP : M=1, N=25
Codec ID : V_MPEG4/ISO/AVC
Duration : 1h 41mn
Bit rate mode : Constant
Bit rate : 1 622 Kbps
Width : 1 024 pixels
Height : 432 pixels
Display aspect ratio : 2.40:1
Frame rate mode : Constant
Frame rate : 23.976 fps
Color space : YUV
Chroma subsampling : 4:2:0
Bit depth : 8 bits
Scan type : Progressive
Bits/(Pixel*Frame) : 0.153
Stream size : 1.12 GiB (76%)
Title : Untraceable.2008.BDRip.720p.[denis100]
Language : English
Default : Yes
Forced : No

Audio
ID : 1
Format : AC-3
Format/Info : Audio Coding 3
Mode extension : CM (complete main)
Format settings, Endianness : Big
Codec ID : A_AC3
Duration : 1h 41mn
Bit rate mode : Constant
Bit rate : 448 Kbps
Channel(s) : 6 channels
Channel positions : Front: L C R, Side: L R, LFE
Sampling rate : 48.0 KHz
Bit depth : 32 bits
Compression mode : Lossy
Stream size : 324 MiB (22%)
Title : Дубляж
Language : Russian
Default : Yes
Forced : No










   Похожие торренты   Торрент   Размер 
В этой теме нет новых непрочитанных сообщений. Не оставляющий следа / Untraceable (2008) HDRip от MegaPeer | A

27 | 0

1.46 ГБ

В этой теме нет новых непрочитанных сообщений. Перелом / Изъян / Fracture (Грегори Хоблит) [2007, триллер, драма, криминал, детектив, BDRip-AVC] AVO

2 | 0

1.83 ГБ

В этой теме нет новых непрочитанных сообщений. Не оставляющий следа / Untraceable (2008) Blu-ray 1080p | Rus Transfer | Лицензия

16 | 8

32 ГБ

В этой теме нет новых непрочитанных сообщений. Не оставляющий следа / Untraceable (2008) BDRip 720p от NNNB | D, A

1 | 0

5.73 ГБ

В этой теме нет новых непрочитанных сообщений. Не оставляющий следа / Untraceable (2008) BDRip 1080p от NNNB | D, A

6 | 1

11.53 ГБ

В этой теме нет новых непрочитанных сообщений. Не оставляющий следа / Untraceable (2008) BDRip от MegaPeer | Rus Transfer | Лицензия

72 | 9

1.46 ГБ

В этой теме нет новых непрочитанных сообщений. Не оставляющий следа / Untraceable (2008) BDRip 1080p от OlLanDGroup | Rus Transfer | Лицензия

10 | 2

10.32 ГБ




Вы не можете начинать темы
Вы не можете отвечать на сообщения
Вы не можете редактировать свои сообщения
Вы не можете удалять свои сообщения
Вы не можете добавлять вложения

Перейти:  
 Вход
ppkBB3cker v.2 © 2008-2014 @ PPK
[ Time : 0.051s | 18 Queries | GZIP : Off ]

cron