img image001 image001 image001 image001 image001 image001 image001 image001 image001 image001 image001 image001 image001 image001 image001

Planets Sun Sun Sun

COVID-19 - Последняя информация о коронавирусе на сайте Минздрава


Статистика раздачи
Автор: Снежана | Размер: 1.54 ГБ | Добавлен: 15 июл 2019
Раздают: 9    Качают: 0
Скачать торрент
Скачать торрент
Описание торрента

СообщениеДобавлено: 15 июл 2019 

Зубастики атакуют! / Critters Attack!


Перевод: Авторский (одноголосый)А.Важенин (BadBajo), субтитры: Английские (отключаемые)
Формат: DVDRip-AVC, MKV, AC3
Страна: США
Режиссер: Бобби Миллер
Жанр: фантастика, комедия, ужасы
Продолжительность: 01:29:15
Год выпуска: 2019

В ролях: Ташиана Р. Вашингтон, Ди Уоллес-Стоун, Джайден Ноэль, Джек Фултон, Ава Престон, Леон Клайнгман, Авашан Сингх, Кит Арбетнот, Стивен Блум, Хо Чоу

Описание: В то время как няня профессора колледжа, 20-летняя Дрея случайно привлекает внимание агрессивных инопланетных тварей, она находит одну из изгнанных королевских особ.



Видео: 720x400 (16:9), 23.976 fps, AVC ~1700 kbps avg, 0.24 bit/pixel
Аудио№1: Русский: 48 kHz, AC3 Dolby Digital, 6/0 ch, ~384 kbps Авторский (одноголосый)А.Важенин (BadBajo)
Аудио№2: Английский: 48 kHz, AC3 Dolby Digital, 6/0 ch, ~384 kbps Оригинал




General
Unique ID : 246468296819964433851537297859482651865 (0xB96C113BCD879F92A5B1709FEF168CD9)
Complete name : E:\фільми\Critters.Attack.2019.DVDRip.XviD.AC3_BadBajo.mkv
Format : Matroska
Format version : Version 4
File size : 1.54 GiB
Duration : 1 h 29 min
Overall bit rate : 2 472 kb/s
Movie name : Critters.Attack.2019.DVDRip.XviD.AC3_BadBajo
Encoded date : UTC 2019-07-12 12:42:54 / UTC 2019-07-11T09:27:54Z
Writing application : mkvmerge v33.1.0 (''Primrose'') 64-bit
Writing library : libebml v1.3.7 + libmatroska v1.5.0 / Lavf55.12.0
Copyright : BadBajo
Cover : Yes
Attachments : cover.jpg / small_cover.jpg

Video
ID : 1
Format : AVC
Format/Info : Advanced Video Codec
Format profile :
Format settings : CABAC / 4 Ref Frames
Format settings, CABAC : Yes
Format settings, RefFrames : 4 frames
Codec ID : V_MPEG4/ISO/AVC
Duration : 1 h 29 min
Bit rate : 1 700 kb/s
Width : 720 pixels
Height : 400 pixels
Display aspect ratio : 16:9
Frame rate mode : Constant
Frame rate : 23.976 (24000/1001) FPS
Color space : YUV
Chroma subsampling : 4:2:0
Bit depth : 8 bits
Scan type : Progressive
Bits/(Pixel*Frame) : 0.246
Stream size : 1.03 GiB (67%)
Writing library : x264 core 142 r2479 dd79a61
Encoding settings : cabac=1 / ref=1 / deblock=1:0:0 / analyse=0x3:0x3 / me=dia / subme=1 / psy=1 / psy_rd=1.00:0.00 / mixed_ref=0 / me_range=16 / chroma_me=1 / trellis=0 / 8x8dct=1 / cqm=0 / deadzone=21,11 / fast_pskip=1 / chroma_qp_offset=0 / threads=12 / lookahead_threads=2 / sliced_threads=0 / nr=0 / decimate=1 / interlaced=0 / bluray_compat=0 / constrained_intra=0 / bframes=3 / b_pyramid=2 / b_adapt=1 / b_bias=0 / direct=1 / weightb=1 / open_gop=0 / weightp=1 / keyint=240 / keyint_min=24 / scenecut=40 / intra_refresh=0 / rc_lookahead=0 / rc=abr / mbtree=0 / bitrate=1700 / ratetol=1.0 / qcomp=0.60 / qpmin=0 / qpmax=69 / qpstep=4 / vbv_maxrate=62500 / vbv_bufsize=78125 / nal_hrd=none / filler=0 / ip_ratio=1.40 / pb_ratio=1.30 / aq=1:1.00
Default : Yes
Forced : No
Color range : Limited
Color primaries : BT.601 NTSC
Transfer characteristics : BT.709
Matrix coefficients : BT.601
Statistics Tags Issue : mkvmerge v33.1.0 (''Primrose'') 64-bit 2019-07-12 12:42:54 / mkvmerge v33.1.0 (''Primrose'') 64-bit 2019-07-12 12:42:54 / UTC 2019-07-11T09:27:54Z
FromStats_BitRate : 1701311
FromStats_Duration : 01:29:15.893000000
FromStats_FrameCount : 128413
FromStats_StreamSize : 1139005594

Audio #1
ID : 2
Format : AC-3
Format/Info : Audio Coding 3
Commercial name : Dolby Digital
Codec ID : A_AC3
Duration : 1 h 29 min
Bit rate mode : Constant
Bit rate : 384 kb/s
Channel(s) : 6 channels
Channel layout : L R C LFE Ls Rs
Sampling rate : 48.0 kHz
Frame rate : 31.250 FPS (1536 SPF)
Bit depth : 16 bits
Compression mode : Lossy
Delay relative to video : -83 ms
Stream size : 245 MiB (16%)
Title : Critters.Attack.2019.AC3_BadBajo
Language : Russian
Service kind : Complete Main
Default : Yes
Forced : Yes
Statistics Tags Issue : mkvmerge v33.1.0 (''Primrose'') 64-bit 2019-07-12 12:42:54 / mkvmerge v33.1.0 (''Primrose'') 64-bit 2019-07-12 12:42:54 / UTC 2019-07-11T09:27:54Z
FromStats_BitRate : 384000
FromStats_Duration : 01:29:15.936000000
FromStats_FrameCount : 167373
FromStats_StreamSize : 257084928

Audio #2
ID : 3
Format : AC-3
Format/Info : Audio Coding 3
Commercial name : Dolby Digital
Codec ID : A_AC3
Duration : 1 h 29 min
Bit rate mode : Constant
Bit rate : 384 kb/s
Channel(s) : 6 channels
Channel layout : L R C LFE Ls Rs
Sampling rate : 48.0 kHz
Frame rate : 31.250 FPS (1536 SPF)
Bit depth : 16 bits
Compression mode : Lossy
Delay relative to video : -5 ms
Stream size : 245 MiB (16%)
Title : Critters.Attack.2019.AC3_eng
Language : English
Service kind : Complete Main
Default : No
Forced : No
Statistics Tags Issue : mkvmerge v33.1.0 (''Primrose'') 64-bit 2019-07-12 12:42:54 / mkvmerge v33.1.0 (''Primrose'') 64-bit 2019-07-12 12:42:54 / UTC 2019-07-11T09:27:54Z
FromStats_BitRate : 384000
FromStats_Duration : 01:29:15.904000000
FromStats_FrameCount : 167372
FromStats_StreamSize : 257083392

Text
ID : 4
Format : UTF-8
Codec ID : S_TEXT/UTF8
Codec ID/Info : UTF-8 Plain Text
Default : No
Forced : No
Statistics Tags Issue : mkvmerge v33.1.0 (''Primrose'') 64-bit 2019-07-12 12:42:54 / mkvmerge v33.1.0 (''Primrose'') 64-bit 2019-07-12 12:42:54 / UTC 2019-07-11T09:27:54Z
FromStats_BitRate : 45
FromStats_Duration : 01:24:49.617000000
FromStats_FrameCount : 999
FromStats_StreamSize : 29093

Menu
00:00:00.000 : :Chapter 1
00:08:57.203 : :Chapter 2
00:17:30.174 : :Chapter 3
00:26:09.192 : :Chapter 4
00:36:23.347 : :Chapter 5
00:44:00.429 : :Chapter 6
00:51:18.283 : :Chapter 7
00:57:40.915 : :Chapter 8
01:06:16.097 : :Chapter 9
01:15:12.800 : :Chapter 10
01:25:29.082 : :Chapter 11










   Похожие торренты   Торрент   Размер 
В этой теме нет новых непрочитанных сообщений. Зубастики атакуют! / Зубастики нападают! / Critters Attack! (Бобби Миллер) [2019, фантастика, комедия, ужасы, HDRip-AVC] VO

2 | 0

1.46 ГБ

В этой теме нет новых непрочитанных сообщений. Зубастики атакуют! / Critters Attack! (Бобби Миллер) [2019, ужасы, фантастика, комедия, DVDRip] VO

7 | 0

1.46 ГБ

В этой теме нет новых непрочитанных сообщений. Зубастики атакуют! / Critters Attack! (Бобби Миллер) [2019, фантастика, комедия, ужасы , DVDRip] VO

9 | 1

741.74 МБ

В этой теме нет новых непрочитанных сообщений. Зубастики атакуют! / Зубастики нападают! / Critters Attack! (Бобби Миллер) [2019, фантастика, комедия, ужасы, HDRip] VO

1 | 0

1.45 ГБ

В этой теме нет новых непрочитанных сообщений. Зубастики. Охотник за головами / Critters Bounty Hunter (Джордан Дауни) [2014, короткометражка, ужасы, фантастика, триллер, HDRip] VO

1 | 0

62.47 МБ

В этой теме нет новых непрочитанных сообщений. Мастер очистки (Очищение) / The Master Cleanse (The Cleanse) (Бобби Миллер) [2016, Ужасы, фэнтези, драма, комедия, WEB-DLRip-AVC] АVO

2 | 0

2.43 ГБ

В этой теме нет новых непрочитанных сообщений. Отель проклятых / Hotel of the Damned (Бобби Барбакору) [2016, ужасы, DVDRip-AVC] AVO

2 | 0

1019.95 МБ




Вы не можете начинать темы
Вы не можете отвечать на сообщения
Вы не можете редактировать свои сообщения
Вы не можете удалять свои сообщения
Вы не можете добавлять вложения

Перейти:  
Контактная информация: rstracker[пёсик]yandex.ru
cron
 Вход
ppkBB3cker v.2 © 2008-2014 @ PPK
[ Time : 0.384s | 18 Queries | GZIP : Off ]

cron