img image001 image001 image001 image001 image001 image001 image001 image001 image001 image001 image001 image001 image001 image001 image001

Planets Sun Sun Sun

COVID-19 - Последняя информация о коронавирусе на сайте Минздрава


Статистика раздачи
Автор: Снежана | Размер: 1.46 ГБ | Добавлен: 25 июл 2019
Раздают: 2    Качают: 0
Скачать торрент
Скачать торрент
Описание торрента

СообщениеДобавлено: 25 июл 2019 

Зубастики атакуют! / Зубастики нападают! / Critters Attack!


Перевод: Любительский (одноголосый) А.Важенин (BadBajo), субтитры: отсутствуют
Формат: HDRip-AVC, MKV, H.264, AC3
Страна: США
Режиссер: Бобби Миллер
Жанр: фантастика, комедия, ужасы
Продолжительность: 01:29:18
Год выпуска: 2019
В ролях: Ташиана Р. Вашингтон, Ди Уоллес-Стоун, Джайден Ноэль, Джек Фултон, Ава Престон, Леон Клайнгман, Авашан Сингх, Кит Арбетнот, Стивен Блум, Хо Чоу

Описание: Дрея мечтает поступить в колледж, но пока находит подработку сиделкой. Чтобы занять детишек, она предлагает прогуляться по лесу. Во время прогулки они находят раненого загадочного зверька и решают помочь ему.



Видео: 1024x576 (16:9), 23.976 fps, AVC MPEG4 (x264), , ~1958 kbps avg, 0.138 bit/pixel
Аудио: 48 kHz, AC3 Dolby Digital, 3/2 (L,C,R,l,r) + LFE ch, ~384 kbps
General
Unique ID : 63692648538622002699678919964716698403 (0x2FEAC2061D160D18A8761878E9280B23)
Complete name : C:\Users\123\Downloads\Critters.Attack.2019.HDRip-AVC_[tfile.ru].mkv
Format : Matroska
Format version : Version 4 / Version 2
File size : 1.46 GiB
Duration : 1h 29mn
Overall bit rate mode : Constant
Overall bit rate : 2 342 Kbps
Encoded date : UTC 2019-07-23 19:36:53
Writing application : Lavf56.36.100
Writing library : Lavf56.36.100

Video
ID : 2
Format : AVC
Format/Info : Advanced Video Codec
Format profile :
Format settings, CABAC : Yes
Format settings, ReFrames : 2 frames
Format settings, GOP : M=1, N=25
Codec ID : V_MPEG4/ISO/AVC
Duration : 1h 29mn
Bit rate mode : Constant
Bit rate : 1 958 Kbps
Width : 1 024 pixels
Height : 576 pixels
Display aspect ratio : 16:9
Frame rate mode : Constant
Frame rate : 23.976 fps
Color space : YUV
Chroma subsampling : 4:2:0
Bit depth : 8 bits
Scan type : Progressive
Bits/(Pixel*Frame) : 0.138
Stream size : 1.19 GiB (82%)
Language : English
Default : Yes
Forced : No
DURATION : 01:29:17.853000000
NUMBER_OF_FRAMES : 128460
NUMBER_OF_BYTES : 7673671702
_STATISTICS_WRITING_APP : mkvmerge v7.1.0 (''Good Love'') 64bit built on Jul 27 2014 13:06:55
_STATISTICS_WRITING_DATE_UTC : 2019-07-23 19:36:53
_STATISTICS_TAGS : BPS DURATION NUMBER_OF_FRAMES NUMBER_OF_BYTES

Audio
ID : 1
Format : AC-3
Format/Info : Audio Coding 3
Mode extension : CM (complete main)
Format settings, Endianness : Big
Codec ID : A_AC3
Duration : 1h 29mn
Bit rate mode : Constant
Bit rate : 384 Kbps
Channel(s) : 6 channels
Channel positions : Front: L C R, Side: L R, LFE
Sampling rate : 48.0 KHz
Bit depth : 32 bits
Compression mode : Lossy
Stream size : 245 MiB (16%)
Title : AVO | BadBajo
Language : Russian
Default : Yes
Forced : No
DURATION : 01:29:17.888000000
NUMBER_OF_FRAMES : 167434
NUMBER_OF_BYTES : 257178624
_STATISTICS_WRITING_APP : mkvmerge v7.1.0 (''Good Love'') 64bit built on Jul 27 2014 13:06:55
_STATISTICS_WRITING_DATE_UTC : 2019-07-23 19:36:53
_STATISTICS_TAGS : BPS DURATION NUMBER_OF_FRAMES NUMBER_OF_BYTES










   Похожие торренты   Торрент   Размер 
В этой теме нет новых непрочитанных сообщений. Зубастики атакуют! / Зубастики нападают! / Critters Attack! (Бобби Миллер) [2019, фантастика, комедия, ужасы, HDRip] VO

1 | 0

1.45 ГБ

В этой теме нет новых непрочитанных сообщений. Зубастики атакуют! / Critters Attack! (Бобби Миллер) [2019, фантастика, комедия, ужасы, DVDRip-AVC] AVO

9 | 0

1.54 ГБ

В этой теме нет новых непрочитанных сообщений. Зубастики атакуют! / Critters Attack! (Бобби Миллер) [2019, фантастика, комедия, ужасы , DVDRip] VO

9 | 1

741.74 МБ

В этой теме нет новых непрочитанных сообщений. Зубастики атакуют! / Critters Attack! (Бобби Миллер) [2019, ужасы, фантастика, комедия, DVDRip] VO

7 | 0

1.46 ГБ

В этой теме нет новых непрочитанных сообщений. Зубастики. Охотник за головами / Critters Bounty Hunter (Джордан Дауни) [2014, короткометражка, ужасы, фантастика, триллер, HDRip] VO

1 | 0

62.47 МБ

В этой теме нет новых непрочитанных сообщений. Зубастики 3 / Critters 3 (1991) WEBRip-AVC от ExKinoRay | P2

5 | 2

746.6 МБ

В этой теме нет новых непрочитанных сообщений. Зубастики / Critters (1986) WEBRip-AVC от ExKinoRay | P

15 | 1

746.3 МБ




Вы не можете начинать темы
Вы не можете отвечать на сообщения
Вы не можете редактировать свои сообщения
Вы не можете удалять свои сообщения
Вы не можете добавлять вложения

Перейти:  
Контактная информация: rstracker[пёсик]yandex.ru
 Вход
ppkBB3cker v.2 © 2008-2014 @ PPK
[ Time : 0.023s | 16 Queries | GZIP : Off ]

cron