img image001 image001 image001 image001 image001 image001 image001 image001 image001 image001 image001 image001 image001 image001 image001

Planets Sun Sun Sun
Статистика раздачи
Автор: Снежана | Размер: 2.18 ГБ | Добавлен: 13 авг 2019
Раздают: 3    Качают: 0
Скачать торрент
Скачать торрент
Описание торрента

СообщениеДобавлено: 13 авг 2019 

Караульный пост 506 / GP506


Перевод: Авторский (одноголосый) + Профессиональный (одноголосый), субтитры: отсутствуют
Формат: HDRip-AVC, MKV, H.264, AC3
Страна: Корея Южная
Режиссер: Су-чанг Куенг
Жанр: ужасы, триллер
Продолжительность: 02:01:05
Год выпуска: 2008
В ролях: Чхон Хо-джин, Чо Хён-джэ, Чхве Гю-хван, Бён-Чхоль До, Чо Джин-ун, Ким Бён-чхоль, Сон-пом Ким, Ку Сон-хван, Чхоль-хи Ли, Ли Джон-хон

Описание: Когда отряд караульного поста 506 не вышел на связь в положенное время, власти заволновались. На пост прибывает разведывательный отряд.



Видео: 1024x560 (1.85:1), 24 fps, AVC MPEG4 (x264), , ~1940 kbps avg, 0.141 bit/pixel
Аудио #1: Русский:48 kHz, AC3 Dolby Digital, 2 (L,R) ch, ~192.00 kbps avg [Авторский (одноголосый)] - Ю.Сербин
Аудио #2: Русский:48 kHz, AC3 Dolby Digital, 3/2 (L,C,R,l,r) + LFE ch, ~448 kbps avg [Профессиональный (одноголосый)] - Интерфильм
General
Unique ID : 181875114877084232361278410988324123720 (0x88D3DF7C2552CFDF13125E6885A3F448)
Complete name : C:\Users\123\Desktop\Сторожевой пост.(AVO+VO).2008.HDRip.AC3.x264_[tfile.ru].mkv
Format : Matroska
Format version : Version 4 / Version 2
File size : 2.18 GiB
Duration : 2h 1mn
Overall bit rate mode : Constant
Overall bit rate : 2 582 Kbps
Encoded date : UTC 2012-05-04 10:55:05
Writing application : Lavf56.36.100
Writing library : Lavf56.36.100

Video
ID : 3
Format : AVC
Format/Info : Advanced Video Codec
Format profile :
Format settings, CABAC : Yes
Format settings, ReFrames : 2 frames
Format settings, GOP : M=1, N=25
Codec ID : V_MPEG4/ISO/AVC
Duration : 2h 1mn
Bit rate mode : Constant
Bit rate : 1 940 Kbps
Width : 1 024 pixels
Height : 560 pixels
Display aspect ratio : 1.85:1
Frame rate mode : Constant
Frame rate : 24.000 fps
Color space : YUV
Chroma subsampling : 4:2:0
Bit depth : 8 bits
Scan type : Progressive
Bits/(Pixel*Frame) : 0.141
Stream size : 1.60 GiB (73%)
Language : English
Default : Yes
Forced : No

Audio #1
ID : 1
Format : AC-3
Format/Info : Audio Coding 3
Mode extension : CM (complete main)
Format settings, Endianness : Big
Codec ID : A_AC3
Duration : 2h 1mn
Bit rate mode : Constant
Bit rate : 192 Kbps
Channel(s) : 2 channels
Channel positions : Front: L R
Sampling rate : 48.0 KHz
Bit depth : 32 bits
Compression mode : Lossy
Stream size : 166 MiB (7%)
Title : AVO Ю.Сербин
Language : Russian
Default : Yes
Forced : No

Audio #2
ID : 2
Format : AC-3
Format/Info : Audio Coding 3
Mode extension : CM (complete main)
Format settings, Endianness : Big
Codec ID : A_AC3
Duration : 2h 1mn
Bit rate mode : Constant
Bit rate : 448 Kbps
Channel(s) : 6 channels
Channel positions : Front: L C R, Side: L R, LFE
Sampling rate : 48.0 KHz
Bit depth : 32 bits
Compression mode : Lossy
Stream size : 388 MiB (17%)
Title : VO
Language : Russian
Default : Yes
Forced : No










   Похожие торренты   Торрент   Размер 
В этой теме нет новых непрочитанных сообщений. Караульный пост 506 / GP506 (2008) HDRip | A

32 | 8

1.46 ГБ

В этой теме нет новых непрочитанных сообщений. Караульный пост 506 / GP506 (2008) BDRip 720p | A, P1

93 | 27

4.54 ГБ

В этой теме нет новых непрочитанных сообщений. Паучок / Itsy Bitsy (Мика Галло) [2019, ужасы, фэнтези, триллер, детектив, HDRip-AVC] AVO

16 | 0

1.46 ГБ

В этой теме нет новых непрочитанных сообщений. Враждебные / Foes (Джон Котс) [1977, фантастика, триллер, VHSRip-AVC] AVO

14 | 0

335.4 МБ

В этой теме нет новых непрочитанных сообщений. Реинкарнация / Hereditary (Ари Астер) [2018, ужасы, триллер, драма, детектив, BDRip] AVO

10 | 0

2.17 ГБ

В этой теме нет новых непрочитанных сообщений. Трое из ада / Three from Hell (Роб Зомби) [2019, ужасы, триллер, HDRip-AVC] DVO

5 | 0

1.46 ГБ

В этой теме нет новых непрочитанных сообщений. Солнцестояние / Midsommar (Ари Астер) [2019, ужасы, триллер, драма, HDRip-AVC] DUB / Мистика

65 | 4

1.46 ГБ




Вы не можете начинать темы
Вы не можете отвечать на сообщения
Вы не можете редактировать свои сообщения
Вы не можете удалять свои сообщения
Вы не можете добавлять вложения

Перейти:  
 Вход
ppkBB3cker v.2 © 2008-2014 @ PPK
[ Time : 0.035s | 16 Queries | GZIP : Off ]

cron