img image001 image001 image001 image001 image001 image001 image001 image001 image001 image001 image001 image001 image001 image001 image001

Planets Sun Sun Sun
Статистика раздачи
Автор: Снежана | Размер: 1.46 ГБ | Добавлен: 13 авг 2019
Раздают: 22    Качают: 3
Скачать торрент
Скачать торрент
Описание торрента

СообщениеДобавлено: 13 авг 2019 

Гори, гори ясно / Brightburn


Перевод: Профессиональный (полное дублирование) iTunes, субтитры: отсутствуют
Формат: HDRip-AVC, MKV, H.264, AC3
Страна: США
Режиссер: Дэвид Яровески
Жанр: ужасы, фантастика
Продолжительность: 01:30:30
Год выпуска: 2019
В ролях: Элизабет Бэнкс, Джексон А. Данн, Дэвид Денман, Дженнифер Холлэнд, Мэтт Джонс, Мередит Хагнер, Бекки Уолстром, Грегори Алан Уильямс, Стив Эйджи, Эмми Хантер, Абрахам Клинкскейлз, Кристиан Финлейсон, Майкл Рукер

Описание: Семейная пара фермеров Тори и Кайл уже долго и безуспешно пытаются завести ребёнка, когда вдруг из космоса в близлежащий лес падает капсула с младенцем. Пара усыновляет малыша и растит его как своего собственного сына. Брэндон растёт послушным, хорошо учится в школе и никогда не болеет. Но по достижении 12 лет характер мальчика резко меняется — он начинает дерзить родителям, и в нём просыпаются незнакомые доселе желания и способности.



Видео: 1024x432 (2.40:1), 23.976 fps, AVC MPEG4 (x264), , ~2118 kbps avg, 0.200 bit/pixel
Аудио: 48 kHz, AC3 Dolby Digital, 2 (L,R) ch, ~192.00 kbps avg

General
Unique ID : 240341543065689570063722509062139227835 (0xB4D018F399A8FAC0C55EE126D6AB2EBB)
Complete name : C:\Users\123\Downloads\Brightburn.2019.HDRip-AVC_[tfile.ru].mkv
Format : Matroska
Format version : Version 4 / Version 2
File size : 1.46 GiB
Duration : 1h 30mn
Overall bit rate mode : Constant
Overall bit rate : 2 310 Kbps
Movie name : Brightburn.2019.BDRip 1080p
Encoded date : UTC 2019-08-12 16:39:41
Writing application : Lavf56.36.100
Writing library : Lavf56.36.100

Video
ID : 2
Format : AVC
Format/Info : Advanced Video Codec
Format profile :
Format settings, CABAC : Yes
Format settings, ReFrames : 2 frames
Format settings, GOP : M=1, N=25
Codec ID : V_MPEG4/ISO/AVC
Duration : 1h 30mn
Bit rate mode : Constant
Bit rate : 2 118 Kbps
Width : 1 024 pixels
Height : 432 pixels
Display aspect ratio : 2.40:1
Frame rate mode : Constant
Frame rate : 23.976 fps
Color space : YUV
Chroma subsampling : 4:2:0
Bit depth : 8 bits
Scan type : Progressive
Bits/(Pixel*Frame) : 0.200
Stream size : 1.31 GiB (90%)
Title : Brightburn.2019.BDRip 1080p
Language : English
Default : Yes
Forced : No
DURATION : 01:30:30.425000000
NUMBER_OF_FRAMES : 130200
NUMBER_OF_BYTES : 6015531357
_STATISTICS_WRITING_APP : mkvmerge v29.0.0 (''Like It Or Not'') 64-bit
_STATISTICS_WRITING_DATE_UTC : 2019-08-12 16:39:41
_STATISTICS_TAGS : BPS DURATION NUMBER_OF_FRAMES NUMBER_OF_BYTES

Audio
ID : 1
Format : AC-3
Format/Info : Audio Coding 3
Mode extension : CM (complete main)
Format settings, Endianness : Big
Codec ID : A_AC3
Duration : 1h 30mn
Bit rate mode : Constant
Bit rate : 192 Kbps
Channel(s) : 2 channels
Channel positions : Front: L R
Sampling rate : 48.0 KHz
Bit depth : 32 bits
Compression mode : Lossy
Stream size : 124 MiB (8%)
Title : DUB [iTunes]
Language : Russian
Default : Yes
Forced : No
DURATION : 01:30:29.984000000
NUMBER_OF_FRAMES : 169687
NUMBER_OF_BYTES : 130319616
_STATISTICS_WRITING_APP : mkvmerge v29.0.0 (''Like It Or Not'') 64-bit
_STATISTICS_WRITING_DATE_UTC : 2019-08-12 16:39:41
_STATISTICS_TAGS : BPS DURATION NUMBER_OF_FRAMES NUMBER_OF_BYTES












   Похожие торренты   Торрент   Размер 
В этой теме нет новых непрочитанных сообщений. Гори, гори ясно / Brightburn (Дэвид Яровески) [2019, ужасы, фантастика, HDRip] DUB

48 | 2

1.46 ГБ

В этой теме нет новых непрочитанных сообщений. Гори, гори ясно / Brightburn (Дэвид Яровески ) [2019, ужасы, фантастика, WEBDLRip] DUB

43 | 7

1.46 ГБ

В этой теме нет новых непрочитанных сообщений. Гори, гори ясно / Brightburn (Дэвид Яровески) [2019, драма, триллер, фантастика, ужасы, TeleSynch] MVO

44 | 1

1.37 ГБ

В этой теме нет новых непрочитанных сообщений. Гори, гори ясно / Brightburn (Дэвид Яровески) [2019, драма, триллер, фантастика, ужасы, HDTVRip ] DUB

47 | 5

1.37 ГБ

В этой теме нет новых непрочитанных сообщений. Гори, гори ясно / Brightburn (Дэвид Яровески) [2019 , ужасы, фантастика, триллер, драма , WEBRip-AVC] MVO

32 | 5

1.46 ГБ

В этой теме нет новых непрочитанных сообщений. Замри и гори / Остановись и гори / Halt and Catch Fire [02х01 из 10] (2014) WEB-DLRip | NewStudio

79 | 0

550.02 МБ

В этой теме нет новых непрочитанных сообщений. Замри и гори / Остановись и гори / Halt and Catch Fire [02х01 из 10] (2014) WEB-DL (720p) | NewStudio

29 | 1

1.44 ГБ




Вы не можете начинать темы
Вы не можете отвечать на сообщения
Вы не можете редактировать свои сообщения
Вы не можете удалять свои сообщения
Вы не можете добавлять вложения

Перейти:  
 Вход
ppkBB3cker v.2 © 2008-2014 @ PPK
[ Time : 0.041s | 16 Queries | GZIP : Off ]

cron