img image001 image001 image001 image001 image001 image001 image001 image001 image001 image001 image001 image001 image001 image001 image001

Planets Sun Sun Sun
Статистика раздачи
Автор: PriZraK | Размер: 1.96 ГБ | Добавлен: 13 авг 2019
Раздают: 143    Качают: 6
Скачать торрент
Скачать торрент
Описание торрента

СообщениеДобавлено: 13 авг 2019 



#77

Информация о фильме
Название: Оперативник
Оригинальное название: The Operative
Год выпуска: 2019
Жанр: Триллер
Режиссер: Юваль Адлер
В ролях: Дайан Крюгер, Мартин Фриман, Кэс Анвар, Ротем Кейнан, Лана Эттинджер, Йоав Леви, Йоханан Херсон, Кейт Николс, Даниэль Вандельт, Юлия Шнайдер

О фильме: Рэйчел бегло говорит на нескольких языках. Идеальная квалификация для агента израильской службы внешней разведки Моссад, которая ее завербовала. Офицер связи Томас высоко ценит ее. Оперативное командование в Израиле также доверяет ей, и поэтому Рэйчел отправляется в Тегеран с секретной миссией. Очарованная этой чужой страной, она тщательно вписывается в повседневную жизнь и заводит роман с бизнесменом Фархадом, человеком, за которым ей поручили шпионить. Но ее миссия становится все более и более требовательной и опасной, пока она наконец не решает бросить задание. Она оставляет загадочное сообщение для Томаса, который должен найти ее, прежде чем она станет угрозой для Израиля.



Выпущено: США, Израиль, Франция, Германия
Студия: Black Bear Pictures, Bord Cadre Films
Продолжительность: 01:56:38
Перевод: Профессиональный (многоголосый, закадровый) | HDRezka Studio

Формат: MKV
Качество: WEB-DLRip-AVC
Видео: MPEG-4 AVC, 1024x428 (2.40:1), 24.000 fps, 1826 Kbps, 0.174 bit/pixel
Аудио #01: 48 kHz, AC3, 2.0, 192 Kbps | MVO | RUS |
Аудио #02: 48 kHz, AC3, 5.1, 384 Kbps | Оригинал | ENG |
Субтитры: Русские (форс.), английские

General
Unique ID : 250621640590643792573176222281869186822 (0xBC8BF8E43A9D7A1B8E86D93DCD265706)
Complete name : D:The.Operative.2019.MVO.AMZN.WEB-DL.ExKinoRay.mkv
Format : Matroska
Format version : Version 2
File size : 1.96 GiB
Duration : 1 h 56 min
Overall bit rate : 2 403 kb/s
Movie name : The Operative 2019 from ExKinoRay
Encoded date : UTC 2019-08-12 02:32:40
Writing application : mkvmerge v5.6.0 ('Kenya Kane') built on May 27 2012 16:44:04
Writing library : libebml v1.2.3 + libmatroska v1.3.0

Video
ID : 1
Format : AVC
Format/Info : Advanced Video Codec
Format profile : High@L4.1
Format settings, CABAC : Yes
Format settings, ReFrames : 11 frames
Codec ID : V_MPEG4/ISO/AVC
Duration : 1 h 56 min
Bit rate : 1 826 kb/s
Width : 1 024 pixels
Height : 428 pixels
Display aspect ratio : 2.40:1
Frame rate mode : Constant
Frame rate : 24.000 FPS
Color space : YUV
Chroma subsampling : 4:2:0
Bit depth : 8 bits
Scan type : Progressive
Bits/(Pixel*Frame) : 0.174
Stream size : 1.45 GiB (74%)
Title : Enigma
Writing library : x264 core 152 r2851 ba24899
Encoding settings : cabac=1 / ref=11 / deblock=1:-2:-2 / analyse=0x3:0x113 / me=umh / subme=10 / psy=1 / psy_rd=1.05:0.10 / mixed_ref=1 / me_range=32 / chroma_me=1 / trellis=2 / 8x8dct=1 / cqm=0 / deadzone=21,11 / fast_pskip=0 / chroma_qp_offset=-3 / threads=12 / lookahead_threads=2 / sliced_threads=0 / nr=0 / decimate=0 / interlaced=0 / bluray_compat=0 / constrained_intra=0 / bframes=9 / b_pyramid=2 / b_adapt=2 / b_bias=0 / direct=3 / weightb=1 / open_gop=0 / weightp=2 / keyint=240 / keyint_min=24 / scenecut=40 / intra_refresh=0 / rc=2pass / mbtree=0 / bitrate=1826 / ratetol=1.0 / qcomp=0.60 / qpmin=0 / qpmax=51 / qpstep=4 / cplxblur=20.0 / qblur=0.5 / ip_ratio=1.40 / pb_ratio=1.30 / aq=1:1.00
Language : English
Default : Yes
Forced : No
Color range : Limited
Color primaries : BT.709
Transfer characteristics : BT.709
Matrix coefficients : BT.709

Audio #1
ID : 2
Format : AC-3
Format/Info : Audio Coding 3
Mode extension : CM (complete main)
Format settings, Endianness : Big
Codec ID : A_AC3
Duration : 1 h 56 min
Bit rate mode : Constant
Bit rate : 192 kb/s
Channel(s) : 2 channels
Channel positions : Front: L R
Sampling rate : 48.0 kHz
Frame rate : 31.250 FPS (1536 spf)
Compression mode : Lossy
Stream size : 160 MiB (8%)
Title : MVO (HDRezka Studio)
Language : Russian
Default : Yes
Forced : No

Audio #2
ID : 3
Format : AC-3
Format/Info : Audio Coding 3
Mode extension : CM (complete main)
Format settings, Endianness : Big
Codec ID : A_AC3
Duration : 1 h 56 min
Bit rate mode : Constant
Bit rate : 384 kb/s
Channel(s) : 6 channels
Channel positions : Front: L C R, Side: L R, LFE
Sampling rate : 48.0 kHz
Frame rate : 31.250 FPS (1536 spf)
Compression mode : Lossy
Stream size : 320 MiB (16%)
Language : English
Default : No
Forced : No

Text #1
ID : 4
Format : UTF-8
Codec ID : S_TEXT/UTF8
Codec ID/Info : UTF-8 Plain Text
Title : Forced
Language : Russian
Default : Yes
Forced : No

Text #2
ID : 5
Format : UTF-8
Codec ID : S_TEXT/UTF8
Codec ID/Info : UTF-8 Plain Text
Language : English
Default : No
Forced : No




Релиз от:

Автор релиза:

   Похожие торренты   Торрент   Размер 
В этой теме нет новых непрочитанных сообщений. Оперативник / The Operative (2019) WEB-DLRip | HDRezka Studio

62 | 7

2.18 ГБ

В этой теме нет новых непрочитанных сообщений. Оперативник / The Operative (Юваль Адлер) [2019, триллер , WEBDLRip] MVO

17 | 0

1.46 ГБ

В этой теме нет новых непрочитанных сообщений. Оперативник / The Operative (Юваль Адлер) [2019, триллер, WEBDLRip] MVO

27 | 0

1.37 ГБ

В этой теме нет новых непрочитанных сообщений. Аладдин / Aladdin (2019) WEB-DLRip-AVC от ExKinoRay | HDRezka Studio

198 | 5

745.71 МБ

В этой теме нет новых непрочитанных сообщений. Форт Боярд: Возвращение [01x01-05 из 10] (2019) WEB-DLRip-AVC от ExKinoRay

13 | 39

7.76 ГБ

В этой теме нет новых непрочитанных сообщений. Аладдин / Aladdin (2019) WEB-DLRip-AVC | HDRezka Studio

333 | 51

2.45 ГБ

В этой теме нет новых непрочитанных сообщений. Аладдин / Aladdin (2019) WEB-DLRip от Scarabey | HDRezka Studio

452 | 27

1.45 ГБ




Вы не можете начинать темы
Вы не можете отвечать на сообщения
Вы не можете редактировать свои сообщения
Вы не можете удалять свои сообщения
Вы не можете добавлять вложения

Перейти:  
 Вход
ppkBB3cker v.2 © 2008-2014 @ PPK
[ Time : 0.047s | 18 Queries | GZIP : Off ]

cron