img image001 image001 image001 image001 image001 image001 image001 image001 image001 image001 image001 image001 image001 image001 image001

Planets Sun Sun Sun
Статистика раздачи
Автор: PriZraK | Размер: 8.73 ГБ | Добавлен: 13 авг 2019
Раздают: 30    Качают: 4
Скачать торрент
Скачать торрент
Описание торрента

СообщениеДобавлено: 13 авг 2019 

Название: Титаник
Оригинальное название: Titanic
Год выхода: 1997
Производство: США / 20th Century Fox, Lightstorm Entertainment, Paramount Pictures
Жанр: Драма, мелодрама
Продолжительность: 03:14:54

Режиссер: Джеймс Кэмерон
В ролях: Леонардо ДиКаприо, Билл Пэкстон, Бернард Хилл, Фрэнсис Фишер, Кейт Уинслет, Билли Зейн, Кэти Бэйтс, Джонатан Хайд, Дэвид Уорнер, Йоан Граффадд, Виктор Гарбер, Сьюзи Эмис, Марк Линдсэй Чэпмэн, Дэнни Нуччи, Глория Стюарт, Брендан Коннолли, Джеймс Кэмерон

Описание: Молодые влюбленные Джек и Роза находят друг друга в первом и последнем плавании «непотопляемого» Титаника. Они не могли знать, что шикарный лайнер столкнется с айсбергом в холодных водах Северной Атлантики, и их страстная любовь превратится в схватку со смертью…

Качество: BDRip-HEVC 720p
Видео: HEVC/H.265, 1280x720, ~4743 Kbps, 10 bit
Аудио 01: DTS, 6 ch, 768 Kbps | Русский, Дублированный (2012г.)
Аудио 02: AC3, 6 ch, 448 Kbps | Русский, Дублированный (1997г.)
Аудио 03: AC3, 6 ch, 448 Kbps | Английский, Оригинал
Субтитры: Русские (полные), английские (полные)



x265 info: frame I: 2524, Avg QP:17.35 kb/s: 13818.74
x265 info: frame P: 56541, Avg QP:18.99 kb/s: 8461.52
x265 info: frame B: 221327, Avg QP:20.90 kb/s: 3688.73
x265 info: Weighted P-Frames: Y:9.7% UV:8.0%
x265 info: consecutive B-frames: 7.0% 4.5% 7.8% 36.3% 10.7% 20.6% 4.2% 4.0% 1.7% 1.1% 0.6% 0.6% 0.2% 0.2% 0.1% 0.1% 0.1%
x265 info:
encoded 280392 frames in 146703.73s (1.91 fps), 4742.35 kb/s, Avg QP:20.48

Формат : Matroska
Версия формата : Version 4
Размер файла : 8,73 Гбайт
Продолжительность : 3 ч. 14 м.
Общий поток : 6410 Кбит/сек
Название фильма : Титаник [Open Matte] (1997) Encoded_by_M@kSIMus
Дата кодирования : UTC 2019-08-12 04:00:26
Программа кодирования : mkvmerge v30.1.0 ('Forever And More') 64-bit
Библиотека кодирования : libebml v1.3.6 + libmatroska v1.4.9
Обложка : Yes
Attachments : cover.jpg

Видео
Идентификатор : 1
Формат : HEVC
Формат/Информация : High Efficiency Video Coding
Профиль формата : Main 10@L4.1@High
Идентификатор кодека : V_MPEGH/ISO/HEVC
Продолжительность : 3 ч. 14 м.
Битрейт : 4743 Кбит/сек
Ширина : 1280 пикселей
Высота : 720 пикселей
Соотношение сторон : 16:9
Режим частоты кадров : Постоянный
Частота кадров : 23,976 (24000/1001) кадра/сек
Цветовое пространство : YUV
Субдискретизация насыщенности : 4:2:0
Битовая глубина : 10 бит
Бит/(Пиксели*Кадры) : 0.215
Размер потока : 6,46 Гбайт (74%)
Библиотека кодирования : x265 3.1+7-147fb92c5ed5:[Windows][clang 8.0.0][64 bit] 10bit
Настройки программы : cpuid=1049583 / frame-threads=5 / wpp / no-pmode / no-pme / no-psnr / no-ssim / log-level=3 / input-csp=1 / input-res=1280x720 / interlace=0 / total-frames=0 / level-idc=41 / high-tier=1 / uhd-bd=0 / ref=4 / allow-non-conformance / no-repeat-headers / annexb / no-aud / no-hrd / info / hash=0 / no-temporal-layers / open-gop / min-keyint=24 / keyint=240 / gop-lookahead=0 / bframes=16 / b-adapt=2 / b-pyramid / bframe-bias=0 / rc-lookahead=40 / lookahead-slices=4 / scenecut=40 / radl=0 / no-splice / no-intra-refresh / ctu=32 / min-cu-size=8 / no-rect / no-amp / max-tu-size=32 / tu-inter-depth=4 / tu-intra-depth=4 / limit-tu=0 / rdoq-level=2 / dynamic-rd=0.00 / no-ssim-rd / signhide / no-tskip / nr-intra=0 / nr-inter=0 / no-constrained-intra / no-strong-intra-smoothing / max-merge=5 / limit-refs=1 / no-limit-modes / me=3 / subme=7 / merange=57 / temporal-mvp / no-hme / weightp / no-weightb / no-analyze-src-pics / deblock=-3:-3 / no-sao / no-sao-non-deblock / rd=3 / early-skip / no-rskip / no-fast-intra / no-tskip-fast / no-cu-lossless / b-intra / no-splitrd-skip / rdpenalty=0 / psy-rd=2.00 / psy-rdoq=1.00 / no-rd-refine / no-lossless / cbqpoffs=0 / crqpoffs=0 / rc=crf / crf=20.0 / qcomp=0.60 / qpstep=4 / stats-write=0 / stats-read=0 / vbv-maxrate=50000 / vbv-bufsize=50000 / vbv-init=0.9 / crf-max=0.0 / crf-min=0.0 / ipratio=1.40 / pbratio=1.30 / aq-mode=3 / aq-strength=1.00 / no-cutree / zone-count=0 / no-strict-cbr / qg-size=32 / no-rc-grain / qpmax=69 / qpmin=0 / no-const-vbv / sar=1 / overscan=0 / videoformat=5 / range=0 / colorprim=1 / transfer=1 / colormatrix=1 / chromaloc=0 / display-window=0cll=0,0 / min-luma=0 / max-luma=1023 / log2-max-poc-lsb=8 / vui-timing-info / vui-hrd-info / slices=1 / no-opt-qp-pps / no-opt-ref-list-length-pps / no-multi-pass-opt-rps / scenecut-bias=0.05 / no-opt-cu-delta-qp / aq-motion / no-hdr / no-hdr-opt / no-dhdr10-opt / no-idr-recovery-sei / analysis-reuse-level=5 / scale-factor=0 / refine-intra=0 / refine-inter=0 / refine-mv=0 / refine-ctu-distortion=0 / no-limit-sao / ctu-info=0 / no-lowpass-dct / refine-analysis-type=8388731 / copy-pic=1 / max-ausize-factor=1.0 / no-dynamic-refine / no-single-sei / no-hevc-aq / no-svt / no-field / qp-adaptation-range=1.00
Язык : English
Default : Да
Forced : Нет
Цветовой диапазон : Limited
Основные цвета : BT.709
Характеристики трансфера : BT.709
Коэффициенты матрицы : BT.709

Аудио #1
Идентификатор : 2
Формат : DTS
Формат/Информация : Digital Theater Systems
Идентификатор кодека : A_DTS
Продолжительность : 3 ч. 14 м.
Вид битрейта : Постоянный
Битрейт : 768 Кбит/сек
Каналы : 6 каналов
ChannelLayout : C L R Ls Rs LFE
Частота : 48,0 КГц
Частота кадров : 93,750 кадра/сек (512 SPF)
Битовая глубина : 24 бит
Метод сжатия : С потерями
Размер потока : 1,05 Гбайт (12%)
Заголовок : Дубляж (2012)
Язык : Russian
Default : Да
Forced : Нет

Аудио #2
Идентификатор : 3
Формат : AC-3
Формат/Информация : Audio Coding 3
Коммерческое название : Dolby Digital
Идентификатор кодека : A_AC3
Продолжительность : 3 ч. 14 м.
Вид битрейта : Постоянный
Битрейт : 448 Кбит/сек
Каналы : 6 каналов
ChannelLayout : L R C LFE Ls Rs
Частота : 48,0 КГц
Частота кадров : 31,250 кадров/сек (1536 SPF)
Битовая глубина : 16 бит
Метод сжатия : С потерями
Размер потока : 624 Мбайт (7%)
Заголовок : Дубляж (1997)
Язык : Russian
Default : Нет
Forced : Нет

Аудио #3
Идентификатор : 4
Формат : AC-3
Формат/Информация : Audio Coding 3
Коммерческое название : Dolby Digital
Идентификатор кодека : A_AC3
Продолжительность : 3 ч. 14 м.
Вид битрейта : Постоянный
Битрейт : 448 Кбит/сек
Каналы : 6 каналов
ChannelLayout : L R C LFE Ls Rs
Частота : 48,0 КГц
Частота кадров : 31,250 кадров/сек (1536 SPF)
Битовая глубина : 16 бит
Метод сжатия : С потерями
Размер потока : 625 Мбайт (7%)
Заголовок : Original
Язык : English
Default : Нет
Forced : Нет

Текст #1
Идентификатор : 5
Формат : UTF-8
Идентификатор кодека : S_TEXT/UTF8
Идентификатор кодека/Информация : UTF-8 Plain Text
Продолжительность : 3 ч. 1 м.
Битрейт : 83 бит/сек
ElementCount : 2031
Размер потока : 110 Кбайт (0%)
Заголовок : Rus Full
Язык : Russian
Default : Нет
Forced : Нет

Текст #2
Идентификатор : 6
Формат : UTF-8
Идентификатор кодека : S_TEXT/UTF8
Идентификатор кодека/Информация : UTF-8 Plain Text
Продолжительность : 3 ч. 9 м.
Битрейт : 47 бит/сек
ElementCount : 2046
Размер потока : 65,3 Кбайт (0%)
Заголовок : Eng Full
Язык : English
Default : Нет
Forced : Нет

Меню
00:00:00.000 : :00:00:00.000
00:01:24.376 : :00:01:24.376
00:04:39.988 : :00:04:39.988
00:08:26.131 : :00:08:26.131
00:10:46.771 : :00:10:46.771
00:12:52.647 : :00:12:52.647
00:16:52.428 : :00:16:52.428
00:20:07.748 : :00:20:07.748
00:23:38.876 : :00:23:38.876
00:26:26.543 : :00:26:26.543
00:29:03.366 : :00:29:03.366
00:29:37.526 : :00:29:37.526
00:34:59.931 : :00:34:59.931
00:36:48.623 : :00:36:48.623
00:42:59.160 : :00:42:59.160
00:45:26.098 : :00:45:26.098
00:47:11.620 : :00:47:11.620
00:53:33.043 : :00:53:33.043
00:56:47.988 : :00:56:47.988
01:05:32.053 : :01:05:32.053
01:10:19.965 : :01:10:19.965
01:14:06.358 : :01:14:06.358
01:16:10.691 : :01:16:10.691
01:19:59.044 : :01:19:59.044
01:22:50.507 : :01:22:50.507
01:23:40.056 : :01:23:40.056
01:28:21.629 : :01:28:21.629
01:29:19.854 : :01:29:19.854
01:32:52.275 : :01:32:52.275
01:36:59.104 : :01:36:59.104
01:44:41.149 : :01:44:41.149
01:46:21.041 : :01:46:21.041
01:47:58.847 : :01:47:58.847
01:50:11.104 : :01:50:11.104
01:52:21.401 : :01:52:21.401
01:53:54.327 : :01:53:54.327
01:55:21.831 : :01:55:21.831
01:56:10.880 : :01:56:10.880
01:57:53.232 : :01:57:53.232
02:06:38.340 : :02:06:38.340
02:08:49.972 : :02:08:49.972
02:11:22.082 : :02:11:22.082
02:15:42.550 : :02:15:42.550
02:19:43.458 : :02:19:43.458
02:21:24.558 : :02:21:24.559
02:25:28.761 : :02:25:28.761
02:27:28.422 : :02:27:28.422
02:29:07.271 : :02:29:07.271
02:29:56.695 : :02:29:56.695
02:33:31.535 : :02:33:31.535
02:36:52.360 : :02:36:52.360
02:38:33.878 : :02:38:33.878
02:40:34.666 : :02:40:34.666
02:45:00.640 : :02:45:00.640
02:47:48.808 : :02:47:48.808
02:49:22.526 : :02:49:22.526
02:52:09.610 : :02:52:09.610
02:53:41.327 : :02:53:41.327
02:57:53.495 : :02:57:53.495
02:59:35.305 : :02:59:35.305
03:01:29.252 : :03:01:29.252
03:03:13.648 : :03:03:13.648
03:04:57.877 : :03:04:57.877
03:07:19.644 : :03:07:19.644




   Похожие торренты   Торрент   Размер 
В этой теме нет новых непрочитанных сообщений. Титаник / Titanic (1997) BDRip-HEVC 720p от R.G. HD-Films | 60 fps | Open mate

23 | 0

7.82 ГБ

В этой теме нет новых непрочитанных сообщений. Титаник / Titanic (1997) BDRip от MediaClub | КПК | Open Matte

246 | 9

881.94 МБ

В этой теме нет новых непрочитанных сообщений. Титаник / Titanic (1997) BDRip 1080 | D, P, P2, A | Open matte

21 | 3

34.27 ГБ

В этой теме нет новых непрочитанных сообщений. Титаник / Titanic (1997) BDRip HEVC 1080p | D | Open Mate

36 | 10

17.17 ГБ

В этой теме нет новых непрочитанных сообщений. Титаник / Titanic (1997) BDRemux 1080p | D, P, P2, A | Open Matte

27 | 40

59.66 ГБ

В этой теме нет новых непрочитанных сообщений. Титаник / Titanic (1997) BDRip HEVC 720p | D

58 | 21

6.8 ГБ

В этой теме нет новых непрочитанных сообщений. Титаник / Titanic (1997) BDRip 720p от R.G. HD-Films | 60 fps | D | A | Open Mate

1 | 4

21.16 ГБ




Вы не можете начинать темы
Вы не можете отвечать на сообщения
Вы не можете редактировать свои сообщения
Вы не можете удалять свои сообщения
Вы не можете добавлять вложения

Перейти:  
cron
 Вход
ppkBB3cker v.2 © 2008-2014 @ PPK
[ Time : 0.024s | 17 Queries | GZIP : Off ]

cron