img image001 image001 image001 image001 image001 image001 image001 image001 image001 image001 image001 image001 image001 image001 image001

Planets Sun Sun Sun
Статистика раздачи
Автор: PriZraK | Размер: 745.87 МБ | Добавлен: 13 авг 2019
Раздают: 0    Качают: 0
Скачать торрент
Скачать торрент
Описание торрента

СообщениеДобавлено: 13 авг 2019 

Информация о фильме
Название: Инспектор Гаджет 2
Оригинальное название: Inspector Gadget 2
Год выхода: 2003
Жанр: Комедия, боевик, фантастика
Режиссер: Алекс Замм
В ролях: Френч Стюарт, Илэйн Хендрикс, Тони Мартин, Кэйтлин Уэкс, Марк Митчел, Сигрид Торнтон, Брюс Спенс, Джон Батчелор

О фильме:
Карьера знаменитого инспектора оказывается под угрозой. Все преступники засажены за решетку, приборы инспектора начинают выходить из строя и сам он начинает сильно глючить. В результате гаджет начинает ловить мирных граждан, и предъявлять им нелепые обвинения. В итоге ему на смену присылают новую модель киборга — Гаджет 2. Инспектор без памяти влюбляется в конкурентку, но не видит ни единой возможности завоевать ее электронное сердце. В это время из-за решетки сбегает старый враг Гаджета и устраивает в городе смертельно опасные беспорядки. Вместе с новой напарницей инспектор отправляется восстанавливать мир и покой на улицах города.


Страна: США
Студия: Walt Disney Pictures
Продолжительность: 01:28:42
Перевод: Профессиональный (многоголосый закадровый)

Файл
Формат: MKV
Качество: WEB-DLRip-AVC
Видео: MPEG-4 AVC, 768x432, - 1098 Кбит/с
Аудио: AAC-HE, 2 ch, - 76 Кбит/с
Субтитры: Русские, английские

Общее
Уникальный идентификатор : 270736781746464800579512721314027755620 (0xCBAE01EB9A2C1D90D5644371FA915864)
Полное имя : D:MOVIESInspector.Gadget.II.2003.WEB-DLRip-AVC.ExKinoRay.mkv
Формат : Matroska
Версия формата : Version 4 / Version 2
Размер файла : 746 Мбайт
Продолжительность : 1 ч. 28 м.
Общий поток : 1176 Кбит/сек
Дата кодирования : UTC 2019-08-12 04:15:53
Программа кодирования : mkvmerge v35.0.0 ('All The Love In The World') 64-bit
Библиотека кодирования : libebml v1.3.9 + libmatroska v1.5.2

Видео
Идентификатор : 1
Формат : AVC
Формат/Информация : Advanced Video Codec
Профиль формата : High@L4.1
Параметр CABAC формата : Да
Параметр RefFrames формата : 12 кадров
Идентификатор кодека : V_MPEG4/ISO/AVC
Продолжительность : 1 ч. 28 м.
Битрейт : 1098 Кбит/сек
Ширина : 768 пикселей
Высота : 432 пикселя
Соотношение сторон : 16:9
Режим частоты кадров : Постоянный
Частота кадров : 23,976 (24000/1001) кадра/сек
Цветовое пространство : YUV
Субдискретизация насыщенности : 4:2:0
Битовая глубина : 8 бит
Тип развёртки : Прогрессивная
Бит/(Пиксели*Кадры) : 0.138
Размер потока : 696 Мбайт (93%)
Библиотека кодирования : x264 core 152 r2851kMod ba24899
Настройки программы : cabac=1 / ref=12 / deblock=1:-3:-3 / analyse=0x3:0x133 / me=umh / subme=10 / psy=1 / fade_compensate=0.00 / psy_rd=1.00:0.12 / mixed_ref=1 / me_range=32 / chroma_me=1 / trellis=2 / 8x8dct=1 / cqm=0 / deadzone=21,11 / fast_pskip=0 / chroma_qp_offset=-3 / threads=6 / lookahead_threads=1 / sliced_threads=0 / nr=0 / decimate=0 / interlaced=0 / bluray_compat=0 / constrained_intra=0 / bframes=12 / b_pyramid=2 / b_adapt=2 / b_bias=0 / direct=3 / weightb=1 / open_gop=0 / weightp=2 / keyint=240 / keyint_min=23 / scenecut=40 / intra_refresh=0 / rc_lookahead=40 / rc=2pass / mbtree=1 / bitrate=1098 / ratetol=1.0 / qcomp=0.60 / qpmin=0 / qpmax=69 / qpstep=4 / cplxblur=20.0 / qblur=0.5 / ip_ratio=1.40 / aq=3:1.00
Default : Да
Forced : Нет

Аудио
Идентификатор : 2
Формат : AAC
Формат/Информация : Advanced Audio Codec
Профиль формата : HE-AAC / LC
Идентификатор кодека : A_AAC
Продолжительность : 1 ч. 28 м.
Битрейт : 76,0 Кбит/сек
Каналы : 2 канала
Расположение каналов : Front: L R
Частота : 48,0 КГц / 24,0 КГц
Частота кадров : 23,438 кадра/сек (1024 SPF)
Метод сжатия : С потерями
Задержка видео : 31 мс.
Размер потока : 48,2 Мбайт (6%)
Язык : Russian
Default : Да
Forced : Нет

Текст #1
Идентификатор : 3
Формат : UTF-8
Идентификатор кодека : S_TEXT/UTF8
Идентификатор кодека/Информация : UTF-8 Plain Text
Продолжительность : 1 ч. 28 м.
Битрейт : 92 бит/сек
ElementCount : 1030
Размер потока : 60,2 Кбайт (0%)
Язык : Russian
Default : Нет
Forced : Нет

Текст #2
Идентификатор : 4
Формат : UTF-8
Идентификатор кодека : S_TEXT/UTF8
Идентификатор кодека/Информация : UTF-8 Plain Text
Продолжительность : 1 ч. 26 м.
Битрейт : 63 бит/сек
ElementCount : 1366
Размер потока : 40,0 Кбайт (0%)
Язык : English
Default : Нет
Forced : Нет

Меню
00:00:00.000 : en:Chapter 01
00:08:06.320 : en:Chapter 02
00:16:24.760 : en:Chapter 03
00:22:57.120 : en:Chapter 04
00:30:14.080 : en:Chapter 05
00:40:25.000 : en:Chapter 06
00:46:52.640 : en:Chapter 07
00:51:50.600 : en:Chapter 08
00:55:16.120 : en:Chapter 09
00:59:08.800 : en:Chapter 10
01:04:15.840 : en:Chapter 11
01:13:45.640 : en:Chapter 12





   Похожие торренты   Торрент   Размер 
В этой теме нет новых непрочитанных сообщений. Инспектор Гаджет / Inspector Gadget [01x01-07 из 26] (2015) WEB-DLRip от New-Team | D

116 | 7

1.97 ГБ

В этой теме нет новых непрочитанных сообщений. Инспектор Гаджет: Большая удача / Inspector Gadget's Biggest Caper Ever (2005) DVDRip от New-Team | P2

24 | 8

1.35 ГБ

В этой теме нет новых непрочитанных сообщений. Инспектор Гаджет: Большая удача / Inspector Gadget's Biggest Caper Ever (2005) DVDRip от New-Team | P2

144 | 5

744.49 МБ

В этой теме нет новых непрочитанных сообщений. Инспектор Джордж Джентли / Inspector George Gently [S06x01-04] (2014) WEB-DLRip 720p | DexterTV

0 | 0

5.75 ГБ

В этой теме нет новых непрочитанных сообщений. Инспектор Клузо / Inspector Clouseau (1968) HDTVRip-AVC | D, P2

7 | 0

1.46 ГБ

В этой теме нет новых непрочитанных сообщений. Инспектор Клузо / Inspector Clouseau (1968) HDRip от Koenig | D

7 | 0

1.45 ГБ

В этой теме нет новых непрочитанных сообщений. Инспектор Джордж Джентли / Inspector George Gently [s06] (2014) HDTVRip от Koenig | P

4 | 1

5.34 ГБ




Вы не можете начинать темы
Вы не можете отвечать на сообщения
Вы не можете редактировать свои сообщения
Вы не можете удалять свои сообщения
Вы не можете добавлять вложения

Перейти:  
 Вход
ppkBB3cker v.2 © 2008-2014 @ PPK
[ Time : 0.040s | 16 Queries | GZIP : Off ]

cron