img image001 image001 image001 image001 image001 image001 image001 image001 image001 image001 image001 image001 image001 image001 image001

Planets Sun Sun Sun
Статистика раздачи
Автор: PriZraK | Размер: 2.18 ГБ | Добавлен: 13 авг 2019
Раздают: 16    Качают: 2
Скачать торрент
Скачать торрент
Описание торрента

СообщениеДобавлено: 13 авг 2019 

Информация о фильме
Название: Моя мачеха – инопланетянка
Оригинальное название: My Stepmother Is an Alien
Год выпуска: 1988
Жанр: фантастика, комедия
Режиссер: Ричард Бенджамин
В ролях: Дэн Эйкройд, Ким Бейсингер, Джон Ловиц, Элисон Хэннигэн, Джозеф Маэр, Сет Грин, Энн Прентисс, Уэсли Манн, Тони Джей, Питер Бромилов

О фильме:
Селеста – сексуальная инопланетянка с секретным заданием – совратить ничего не подозревающего физика Стива Миллса и добраться до его исследований, в которых содержится ключ к спасению ее планеты. Разодетая по последней моде и закусывающая на завтрак батарейками, Селеста производит неизгладимое впечатление на земных мужчин. Счастливый муж вот-вот испытает близкие контакты космически невообразимой степени!



Страна: США
Производство: Catalina Production Group Ltd., Weintraub Entertainment Group
Продолжительность: 01:43:33
Перевод: Профессиональный (многоголосый, закадровый)
Субтитры: Russian, English

Файл
Формат: Matroska
Качество: WEB-DLRip-AVC
Видео: 1024x576 at 25.000 fps, x264, ~2630 kbps
Aудио#1: AC3, 2/0 (L,R) ch, ~192 kbps |MVO, ОРТ|
Aудио#2: AC3, 2/0 (L,R) ch, ~192 kbps |MVO, СТС|
Формат субтитров: softsub (SRT)

***Релиз от: -=DoMiNo=-

General
Unique ID : 270291413723319760932231369956453294268 (0xCB583B94DA17787880C6A1804C28A0BC)
Complete name : Моя мачеха – инопланетянка.(1988).WEB-DLRip-AVC.O.M.[-=DoMiNo=-].mkv
Format : Matroska
Format version : Version 4
File size : 2.18 GiB
Duration : 1 h 43 min
Overall bit rate : 3 015 kb/s
Movie name : Моя мачеха - инопланетянка / My Stepmother Is an Alien (1988)
Encoded date : UTC 2019-05-08 17:47:57
Writing application : mkvmerge v33.1.0 ('Primrose') 64-bit
Writing library : libebml v1.3.7 + libmatroska v1.5.0
Attachments : poster.jpg

Video
ID : 1
Format : AVC
Format/Info : Advanced Video Codec
Format profile : High@L4.1
Format settings : CABAC / 14 Ref Frames
Format settings, CABAC : Yes
Format settings, Reference : 14 frames
Codec ID : V_MPEG4/ISO/AVC
Duration : 1 h 43 min
Bit rate : 2 630 kb/s
Width : 1 024 pixels
Height : 576 pixels
Display aspect ratio : 16:9
Frame rate mode : Constant
Frame rate : 25.000 FPS
Color space : YUV
Chroma subsampling : 4:2:0
Bit depth : 8 bits
Scan type : Progressive
Bits/(Pixel*Frame) : 0.178
Stream size : 1.90 GiB (87%)
Title : RIP_BY_-=DoMiNo=-
Writing library : x264 core 157 r2935 545de2f
Encoding settings : cabac=1 / ref=14 / deblock=1:-2:-2 / analyse=0x3:0x133 / me=umh / subme=11 / psy=1 / psy_rd=1.00:0.00 / mixed_ref=1 / me_range=32 / chroma_me=1 / trellis=2 / 8x8dct=1 / cqm=0 / deadzone=21,11 / fast_pskip=0 / chroma_qp_offset=-2 / threads=6 / lookahead_threads=1 / sliced_threads=0 / nr=0 / decimate=0 / interlaced=0 / bluray_compat=0 / constrained_intra=0 / bframes=9 / b_pyramid=2 / b_adapt=2 / b_bias=0 / direct=3 / weightb=1 / open_gop=0 / weightp=2 / keyint=250 / keyint_min=23 / scenecut=40 / intra_refresh=0 / rc=2pass / mbtree=0 / bitrate=2630 / ratetol=1.0 / qcomp=0.70 / qpmin=0 / qpmax=69 / qpstep=4 / cplxblur=20.0 / qblur=0.5 / ip_ratio=1.40 / pb_ratio=1.30 / aq=3:0.90
Language : English
Default : Yes
Forced : No
Color range : Limited
Color primaries : BT.709
Transfer characteristics : BT.709
Matrix coefficients : BT.709

Audio #1
ID : 2
Format : AC-3
Format/Info : Audio Coding 3
Commercial name : Dolby Digital
Codec ID : A_AC3
Duration : 1 h 43 min
Bit rate mode : Constant
Bit rate : 192 kb/s
Channel(s) : 2 channels
Channel layout : L R
Sampling rate : 48.0 kHz
Frame rate : 31.250 FPS (1536 SPF)
Bit depth : 16 bits
Compression mode : Lossy
Stream size : 142 MiB (6%)
Title : OPT
Language : Russian
Service kind : Complete Main
Default : Yes
Forced : No

Audio #2
ID : 3
Format : AC-3
Format/Info : Audio Coding 3
Commercial name : Dolby Digital
Codec ID : A_AC3
Duration : 1 h 43 min
Bit rate mode : Constant
Bit rate : 192 kb/s
Channel(s) : 2 channels
Channel layout : L R
Sampling rate : 48.0 kHz
Frame rate : 31.250 FPS (1536 SPF)
Bit depth : 16 bits
Compression mode : Lossy
Stream size : 142 MiB (6%)
Title : CTC
Language : Russian
Service kind : Complete Main
Default : No
Forced : No

Text #1
ID : 4
Format : UTF-8
Codec ID : S_TEXT/UTF8
Codec ID/Info : UTF-8 Plain Text
Duration : 1 h 41 min
Bit rate : 92 b/s
Count of elements : 1204
Stream size : 68.4 KiB (0%)
Language : Russian
Default : No
Forced : No

Text #2
ID : 5
Format : UTF-8
Codec ID : S_TEXT/UTF8
Codec ID/Info : UTF-8 Plain Text
Duration : 1 h 41 min
Bit rate : 55 b/s
Count of elements : 1190
Stream size : 41.2 KiB (0%)
Title : Englisch FULL
Language : English
Default : No
Forced : No

Menu
00:00:00.000 : en:Глава 01
00:10:00.000 : en:Глава 02
00:20:00.000 : en:Глава 03
00:30:00.000 : en:Глава 04
00:40:00.000 : en:Глава 05
00:50:00.000 : en:Глава 06
01:00:00.000 : en:Глава 07
01:10:00.000 : en:Глава 08
01:20:00.000 : en:Глава 09
01:30:00.000 : en:Глава 10
01:40:00.000 : en:Глава 11



   Похожие торренты   Торрент   Размер 
В этой теме нет новых непрочитанных сообщений. Моя мачеха - инопланетянка / My Stepmother Is an Alien (1988) WEB-DLRip-AVC от ExKinoRay | P

9 | 0

746 МБ

В этой теме нет новых непрочитанных сообщений. Моя мачеха – инопланетянка / My Stepmother Is an Alien (1988) HDRip от Scarabey | Р

93 | 9

1.45 ГБ

В этой теме нет новых непрочитанных сообщений. Моя мачеха – инопланетянка / My Stepmother Is an Alien (1988) HDRip от Scarabey | P

37 | 4

747.54 МБ

В этой теме нет новых непрочитанных сообщений. Моя мачеха - инопланетянка / My Stepmother Is an Alien (1988) HDTVRip-AVC от ExKinoRay | P

11 | 1

745.59 МБ

В этой теме нет новых непрочитанных сообщений. Инопланетянка из Лос-Анджелеса / Alien from L.A. (1988) DVDRip-AVC | L1

1 | 0

2.1 ГБ

В этой теме нет новых непрочитанных сообщений. Инопланетянка из Лос-Анджелеса / Alien from L.A. (1988) DVDRip | L1

9 | 4

1.45 ГБ

В этой теме нет новых непрочитанных сообщений. Мачеха [01-04 из 04] (2016) WEB-DLRip 720p от MegaPeer

4 | 2

3.46 ГБ




Вы не можете начинать темы
Вы не можете отвечать на сообщения
Вы не можете редактировать свои сообщения
Вы не можете удалять свои сообщения
Вы не можете добавлять вложения

Перейти:  
 Вход
ppkBB3cker v.2 © 2008-2014 @ PPK
[ Time : 0.450s | 17 Queries | GZIP : Off ]

cron