img image001 image001 image001 image001 image001 image001 image001 image001 image001 image001 image001 image001 image001 image001 image001

Planets Sun Sun Sun
Статистика раздачи
Автор: PriZraK | Размер: 6.27 ГБ | Добавлен: 13 авг 2019
Раздают: 0    Качают: 0
Скачать торрент
Скачать торрент
Описание торрента

СообщениеДобавлено: 13 авг 2019 

Масло Лоренцо / Lorenzo's Oil

Страна: США
Производство: Universal Pictures, Kennedy Miller Productions
Год выпуска: 1992
Жанр: драма
Продолжительность: 02:15:12

Режиссер: Джордж Миллер
В ролях: Ник Нолти, Сьюзен Сарандон, Питер Устинов, Кэтлин Уилхойт, Зак О’Мэлли Гринберг, Джеймс Ребхорн, Лора Линни, Джерри Бэммен

Описание: Маленький Лоренцо Одоне поражён редкой, неизлечимой болезнью мозга. Впав на долгие годы в состояние, близкое к коматозному, Лоренцо не знает, какую долгую, изнуряющую борьбу с недугом ведут его родители Аугусто и Михаэла Одоне. Преодолевая трудности, медицинские заключения с их смертельными приговорами, предубеждение окружающих, они изобретают уникальное лекарство, позволяющее справиться с болезнью. Лекарство, получившее название «масло Лоренцо»…



Перевод №1: Профессиональный (двухголосый, закадровый) | HTB+
Перевод №2: Профессиональный (двухголосый, закадровый) | Премьер Видео Фильм
Перевод №3: Профессиональный (двухголосый, закадровый) | канал Yes
Перевод №4: Авторский (одноголосый, закадровый) | Алексей Михалёв
Субтитры: русские (full)


Качество: BDRip 720p
Формат: MKV
Видео кодек: AVC
Аудио кодек: АС3
Видео: 1280x694 (1.85:1), 23.976 fps, MPEG-4 AVC ~5 676 kbps avg
Аудио №1: 48.0 kHz, AC3 Dolby Digital, 2/0 (L,R) ch, ~192 kbps | RUS / DVO / HTB+
Аудио №2: 48.0 kHz, AC3 Dolby Digital, 2/0 (L,R) ch, ~192 kbps | RUS / DVO / Премьер Видео Фильм
Аудио №3: 48.0 kHz, AC3 Dolby Digital, 2/0 (L,R) ch, ~192 kbps | RUS / DVO / канал Yes
Аудио №4: 48.0 kHz, AC3 Dolby Digital, 2/0 (L,R) ch, ~192 kbps | RUS / АVO / Алексей Михалёв
Аудио №5: 48.0 kHz, AC3 Dolby Digital, 2/0 (L,R) ch, ~192 kbps | ENG / Original
Формат субтитров: UTF-8 Plain Text

Дата премьеры (мир): 30 декабря 1992



Релиз от: msltel
General
Уникальный идентификатор : 213985446864135641677310403241363578091 (0xA0FC191513ED1337BCE60A6AFBAF1CEB)
Полное имя : Масло Лоренцо.1992.BDRip 720p by msltel.mkv
Формат : Matroska
Версия формата : Version 4
Размер файла : 6,27 Гбайт
Продолжительность : 2 ч. 15 м.
Общий поток : 6637 Кбит/сек
Название фильма : Rip by msltel
Дата кодирования : UTC 2019-08-12 02:19:46
Программа кодирования : mkvmerge v8.2.0 ('World of Adventure') 64bit
Библиотека кодирования : libebml v1.3.1 + libmatroska v1.4.2

Видео
Идентификатор : 1
Формат : AVC
Формат/Информация : Advanced Video Codec
Профиль формата : High@L4.1
Настройки формата : CABAC / 9 Ref Frames
Параметр CABAC формата : Да
Параметр RefFrames формата : 9 кадров
Идентификатор кодека : V_MPEG4/ISO/AVC
Продолжительность : 2 ч. 15 м.
Битрейт : 5676 Кбит/сек
Ширина : 1280 пикселей
Высота : 694 пикселя
Соотношение сторон : 1,85:1
Режим частоты кадров : Постоянный
Частота кадров : 23,976 (24000/1001) кадра/сек
Цветовое пространство : YUV
Субдискретизация насыщенности : 4:2:0
Битовая глубина : 8 бит
Тип развёртки : Прогрессивная
Бит/(Пиксели*Кадры) : 0.267
Размер потока : 5,36 Гбайт (85%)
Библиотека кодирования : x264 core 157 r2935 545de2f
Настройки программы : cabac=1 / ref=9 / deblock=1:-2:-2 / analyse=0x3:0x113 / me=umh / subme=11 / psy=1 / psy_rd=1.00:0.15 / mixed_ref=1 / me_range=32 / chroma_me=1 / trellis=2 / 8x8dct=1 / cqm=0 / deadzone=21,11 / fast_pskip=0 / chroma_qp_offset=-3 / threads=6 / lookahead_threads=1 / sliced_threads=0 / nr=0 / decimate=1 / interlaced=0 / bluray_compat=0 / constrained_intra=0 / bframes=6 / b_pyramid=2 / b_adapt=2 / b_bias=0 / direct=1 / weightb=1 / open_gop=0 / weightp=2 / keyint=230 / keyint_min=23 / scenecut=40 / intra_refresh=0 / rc_lookahead=40 / rc=crf / mbtree=1 / crf=16.5 / qcomp=0.60 / qpmin=0 / qpmax=69 / qpstep=4 / vbv_maxrate=50000 / vbv_bufsize=62500 / crf_max=0.0 / nal_hrd=none / filler=0 / ip_ratio=1.40 / aq=1:1.00
Язык : English
Default : Да
Forced : Нет

Аудио #1
Идентификатор : 2
Формат : AC-3
Формат/Информация : Audio Coding 3
Коммерческое название : Dolby Digital
Идентификатор кодека : A_AC3
Продолжительность : 2 ч. 15 м.
Вид битрейта : Постоянный
Битрейт : 192 Кбит/сек
Каналы : 2 канала
ChannelLayout : L R
Частота : 48,0 КГц
Частота кадров : 31,250 кадров/сек (1536 SPF)
Битовая глубина : 16 бит
Метод сжатия : С потерями
Размер потока : 186 Мбайт (3%)
Заголовок : DVO HTB+
Язык : Russian
Default : Да
Forced : Нет

Аудио #2
Идентификатор : 3
Формат : AC-3
Формат/Информация : Audio Coding 3
Коммерческое название : Dolby Digital
Идентификатор кодека : A_AC3
Продолжительность : 2 ч. 15 м.
Вид битрейта : Постоянный
Битрейт : 192 Кбит/сек
Каналы : 2 канала
ChannelLayout : L R
Частота : 48,0 КГц
Частота кадров : 31,250 кадров/сек (1536 SPF)
Битовая глубина : 16 бит
Метод сжатия : С потерями
Размер потока : 186 Мбайт (3%)
Заголовок : DVO Премьер Видео Фильм - CTC
Язык : Russian
Default : Нет
Forced : Нет

Аудио #3
Идентификатор : 4
Формат : AC-3
Формат/Информация : Audio Coding 3
Коммерческое название : Dolby Digital
Идентификатор кодека : A_AC3
Продолжительность : 2 ч. 15 м.
Вид битрейта : Постоянный
Битрейт : 192 Кбит/сек
Каналы : 2 канала
ChannelLayout : L R
Частота : 48,0 КГц
Частота кадров : 31,250 кадров/сек (1536 SPF)
Битовая глубина : 16 бит
Метод сжатия : С потерями
Размер потока : 186 Мбайт (3%)
Заголовок : DVO канал Yes
Язык : Russian
Default : Нет
Forced : Нет

Аудио #4
Идентификатор : 5
Формат : AC-3
Формат/Информация : Audio Coding 3
Коммерческое название : Dolby Digital
Идентификатор кодека : A_AC3
Продолжительность : 2 ч. 15 м.
Вид битрейта : Постоянный
Битрейт : 192 Кбит/сек
Каналы : 2 канала
ChannelLayout : L R
Частота : 48,0 КГц
Частота кадров : 31,250 кадров/сек (1536 SPF)
Битовая глубина : 16 бит
Метод сжатия : С потерями
Размер потока : 186 Мбайт (3%)
Заголовок : Алексей Михалёв
Язык : Russian
Default : Нет
Forced : Нет

Аудио #5
Идентификатор : 6
Формат : AC-3
Формат/Информация : Audio Coding 3
Коммерческое название : Dolby Digital
Идентификатор кодека : A_AC3
Продолжительность : 2 ч. 15 м.
Вид битрейта : Постоянный
Битрейт : 192 Кбит/сек
Каналы : 2 канала
ChannelLayout : L R
Частота : 48,0 КГц
Частота кадров : 31,250 кадров/сек (1536 SPF)
Битовая глубина : 16 бит
Метод сжатия : С потерями
Размер потока : 186 Мбайт (3%)
Заголовок : original
Язык : English
Default : Нет
Forced : Нет

Текст
Идентификатор : 7
Формат : UTF-8
Идентификатор кодека : S_TEXT/UTF8
Идентификатор кодека/Информация : UTF-8 Plain Text
Продолжительность : 2 ч. 12 м.
Битрейт : 108 бит/сек
ElementCount : 1780
Размер потока : 105 Кбайт (0%)
Заголовок : русские
Язык : Russian
Default : Нет
Forced : Нет



   Похожие торренты   Торрент   Размер 
В этой теме нет новых непрочитанных сообщений. Издалека / Desde alla / From Afar (Лоренцо Вигас / Lorenzo Vigas) [2015, драма, криминал, мелодрама, DVDRip] VO

7 | 0

1.86 ГБ

В этой теме нет новых непрочитанных сообщений. Как / Оно / Есть: Масло (2014) WEBRip 720p

1 | 0

714.9 МБ

В этой теме нет новых непрочитанных сообщений. Баскетбол. NBA 2016-17. PS. Toronto Raptors @ San Lorenzo de Almagros [14.10] (2016) WEB-DL 720p

0 | 0

2.45 ГБ

В этой теме нет новых непрочитанных сообщений. Контрольная закупка. Кукурузное рафинированное масло [эфир от 11.04] (2017) WEBRip 720p от OlLanDGroup

22 | 7

648.87 МБ

В этой теме нет новых непрочитанных сообщений. Контрольная закупка. Масло сливочное жирностью 82,5% [эфир от 20.04] (2017) WEBRip 720p от OlLanDGroup

2 | 0

677.38 МБ

В этой теме нет новых непрочитанных сообщений. Война крестьян / La guerra dei cafoni (Давид Барлетти, Лоренцо Конте) [2017, комедия, WEBDLRip] MVO

0 | 1

1.45 ГБ

В этой теме нет новых непрочитанных сообщений. 1992 / 1992 [01x01-02 из 10] (2015) WEB-DL 720p от ExKinoRay | Эй Би Видео

11 | 8

5.77 ГБ




Вы не можете начинать темы
Вы не можете отвечать на сообщения
Вы не можете редактировать свои сообщения
Вы не можете удалять свои сообщения
Вы не можете добавлять вложения

Перейти:  
 Вход
ppkBB3cker v.2 © 2008-2014 @ PPK
[ Time : 0.022s | 17 Queries | GZIP : Off ]

cron